<?xml version="1.0" standalone="no"?>
<!DOCTYPE svg PUBLIC "-//W3C//DTD SVG 1.1//EN" "http://www.w3.org/Graphics/SVG/1.1/DTD/svg11.dtd" >
<svg xmlns="http://www.w3.org/2000/svg">
<metadata></metadata>
<defs>
<font id="pt_sans_narrowregular" horiz-adv-x="957" >
<font-face units-per-em="2048" ascent="1638" descent="-410" />
<missing-glyph horiz-adv-x="451" />
<glyph unicode="&#xfb01;" horiz-adv-x="929" d="M34 927v138h130v59q0 201 81 291.5t237 90.5q104 0 182 -20.5t126 -46.5l-48 -127q-51 31 -114 43.5t-132 12.5q-59 0 -94.5 -20.5t-54.5 -60t-24.5 -95.5t-5.5 -127h484v-1065h-153v927h-331v-927h-153v927h-130z" />
<glyph unicode="&#xfb02;" horiz-adv-x="998" d="M34 927v138h130v59q0 201 71.5 296.5t239.5 95.5q35 0 80.5 -3t90.5 -8t84 -11.5t62 -15.5v-1236q0 -70 20.5 -99.5t56.5 -29.5q47 0 107 23l10 -124q-28 -16 -76 -27t-93 -11q-81 0 -129.5 51.5t-48.5 175.5v1160q-24 5 -69.5 11t-90.5 6q-55 0 -87 -21.5t-49 -61 t-21.5 -97.5t-4.5 -133h169v-138h-169v-927h-153v927h-130z" />
<glyph horiz-adv-x="2048" />
<glyph horiz-adv-x="2048" />
<glyph unicode="&#xd;" horiz-adv-x="451" />
<glyph unicode=" "  horiz-adv-x="451" />
<glyph unicode="&#x09;" horiz-adv-x="451" />
<glyph unicode="&#xa0;" horiz-adv-x="451" />
<glyph unicode="!" horiz-adv-x="525" d="M187 96q0 59 29 89t78 30t77.5 -29.5t28.5 -89.5q0 -62 -28.5 -92t-77.5 -30t-78 30t-29 92zM215 752v739h159v-739l-31 -376h-95z" />
<glyph unicode="&#x22;" horiz-adv-x="608" d="M153 1080v411h148l-56 -411h-92zM377 1080v411h148l-56 -411h-92z" />
<glyph unicode="#" d="M51 479l28 128h130l57 298h-130l28 128h128l64 335h130l-64 -335h174l66 335h130l-64 -335h130l-29 -128h-126l-57 -298h127l-29 -128h-122l-69 -355h-131l68 355h-175l-67 -355h-130l67 355h-134zM339 607h177l57 298h-177z" />
<glyph unicode="$" d="M134 38l49 145q34 -24 94 -44.5t140 -25.5v605q-53 34 -103 72.5t-89.5 89.5t-64 118t-24.5 158q0 141 71.5 236t209.5 118v194h130v-190q83 -4 139 -15.5t104 -35.5l-48 -138q-37 19 -81.5 33t-113.5 18v-549q53 -37 106.5 -77.5t95 -92.5t67 -119t25.5 -156 q0 -153 -75 -260t-219 -137v-198h-130v187q-94 4 -165 19t-118 45zM296 1163q0 -94 44 -156t111 -113v478q-87 -17 -121 -79t-34 -130zM514 122q77 16 122 79t45 169q0 102 -49 166.5t-118 115.5v-530z" />
<glyph unicode="%" horiz-adv-x="1356" d="M118 1154q0 98 20 167t57 113t87 63t108 19q57 0 107 -18t87.5 -59.5t58 -112t20.5 -172.5t-20.5 -172t-58 -111.5t-87.5 -60t-107 -18.5t-107.5 18.5t-87.5 60t-57 111.5t-20 172zM196 38l908 1480l99 -63l-908 -1481zM256 1154q0 -138 37 -191.5t97 -53.5q30 0 54.5 11 t41.5 37.5t26.5 74.5t9.5 122q0 73 -9.5 121t-26.5 75.5t-42 38.5t-54 11q-32 0 -56.5 -11t-41.5 -38.5t-26.5 -75.5t-9.5 -121zM744 364q0 98 20 167t57 113t87 63t108 19q57 0 107 -18t87.5 -59.5t58 -112t20.5 -172.5t-20.5 -172t-58 -111.5t-87.5 -60t-107 -18.5 t-107.5 18.5t-87.5 60t-57 111.5t-20 172zM882 364q0 -138 37 -191.5t97 -53.5q30 0 54.5 11t41.5 37.5t26.5 74.5t9.5 122q0 73 -9.5 121t-26.5 75.5t-42 38.5t-54 11q-32 0 -56.5 -11t-41.5 -38.5t-26.5 -75.5t-9.5 -121z" />
<glyph unicode="&#x26;" horiz-adv-x="1396" d="M193 400q0 86 26 161t67.5 140t95 119t108.5 96q-43 77 -74.5 157.5t-31.5 170.5q0 51 13.5 100t45.5 87.5t81 61.5t119 23q73 0 122.5 -21t80 -55t44 -77.5t13.5 -90.5q0 -92 -57.5 -188t-174.5 -188q28 -59 63 -124t74.5 -130t81 -128t81.5 -116q39 53 72.5 142.5 t55.5 172.5l124 -48q-10 -37 -30 -88t-42.5 -103t-46.5 -100t-45 -80q70 -83 118 -128.5t97 -80.5l-96 -111q-95 55 -209 199q-30 -39 -67.5 -74.5t-83 -63t-102 -44.5t-122.5 -17q-83 0 -156.5 27t-127.5 80t-85.5 133t-31.5 186zM347 402q0 -70 21.5 -124t58.5 -90.5 t85.5 -55.5t101.5 -19q40 0 80.5 14.5t75.5 38t63 52t47 59.5q-49 61 -96 131.5t-89.5 141t-78 136.5t-58.5 121q-44 -43 -82.5 -85.5t-67 -90.5t-45 -104t-16.5 -125zM537 1244q0 -64 20 -125.5t52 -126.5q88 75 120.5 137t32.5 111q0 59 -24.5 102.5t-87.5 43.5 q-59 0 -86 -40.5t-27 -101.5z" />
<glyph unicode="'" horiz-adv-x="384" d="M153 1080v411h148l-56 -411h-92z" />
<glyph unicode="(" horiz-adv-x="496" d="M102 518q0 117 15 246.5t49.5 260.5t90.5 257t137 234l96 -57q-69 -108 -113.5 -227.5t-71 -242t-38 -243t-11.5 -228.5q0 -102 12.5 -224.5t41.5 -246.5t73.5 -241t106.5 -211l-100 -64q-81 102 -135 224.5t-88.5 251.5t-49.5 260t-15 251z" />
<glyph unicode=")" horiz-adv-x="496" d="M102 -405q61 94 106.5 211t74 241t41.5 246t13 225q0 108 -12 228.5t-38.5 243t-72.5 241.5t-112 228l96 57q81 -108 137.5 -234t90.5 -257t49 -261t15 -246q0 -120 -15 -251t-49 -260t-89.5 -251t-133.5 -225z" />
<glyph unicode="*" horiz-adv-x="618" d="M63 1182v109h95l106 -23l-81 87l-47 86l94 57l42 -82l33 -111l34 111l45 80l93 -51l-49 -86l-81 -91l117 23h89v-109h-82l-115 23l83 -93l43 -75l-92 -53l-45 81l-40 117l-33 -113l-44 -79l-94 54l49 80l75 81l-100 -23h-95z" />
<glyph unicode="+" horiz-adv-x="882" d="M75 652v143h293v331h146v-331h293v-143h-293v-333h-146v333h-293z" />
<glyph unicode="," horiz-adv-x="395" d="M66 -240q28 14 52 38.5t40.5 54t24.5 63t8 65.5q-42 -12 -78 17.5t-36 93.5q0 53 30.5 85t79.5 32q55 0 90.5 -44.5t35.5 -140.5q0 -71 -18 -127.5t-47 -99t-63 -70.5t-65 -40z" />
<glyph unicode="-" horiz-adv-x="618" d="M100 535v146h420v-146h-420z" />
<glyph unicode="." horiz-adv-x="378" d="M83 96q0 59 28.5 89t77.5 30t78 -29.5t29 -89.5q0 -62 -29 -92t-78 -30t-77.5 30t-28.5 92z" />
<glyph unicode="/" horiz-adv-x="628" d="M-59 -254l626 1770l118 -46l-622 -1768z" />
<glyph unicode="0" d="M81 746q0 205 25.5 351.5t76.5 239t126 136t170 43.5q102 0 178 -43.5t125 -136t72.5 -239.5t23.5 -351q0 -207 -25.5 -352.5t-77 -239t-125 -137t-168.5 -43.5q-104 0 -180 44.5t-125 139t-72.5 240t-23.5 348.5zM240 746q0 -305 58 -469t186 -164q123 0 179.5 150 t56.5 483q0 302 -54 467t-187 165q-123 0 -181 -148.5t-58 -483.5z" />
<glyph unicode="1" d="M128 1154l388 362h78v-1374h233v-142h-626v142h240v1038l19 125l-72 -102l-179 -144z" />
<glyph unicode="2" d="M118 0v69q40 49 93 123t109 162.5t111 187.5t97.5 201.5t69 202.5t26.5 192q0 108 -50 172t-146 64q-61 0 -119.5 -22.5t-101.5 -56.5l-60 113q57 51 140 79.5t175 28.5q158 0 240 -96.5t82 -254.5q0 -118 -35.5 -245.5t-89.5 -252t-121 -239.5t-131 -204l-86 -94v-6 l114 18h372v-142h-689z" />
<glyph unicode="3" d="M156 24l42 138q40 -24 92.5 -36.5t120.5 -12.5q57 0 105.5 23.5t83 66t54 101t19.5 129.5q0 158 -69 230t-193 72h-128v62l247 477l84 89l-118 -15h-334v143h618v-62l-274 -509l-63 -62v-4l61 13q66 0 126.5 -27t102.5 -79t68 -128.5t26 -179.5q0 -115 -33.5 -204 t-89.5 -150t-132 -93t-161 -32q-75 0 -140.5 13t-114.5 37z" />
<glyph unicode="4" d="M43 458v72l564 984h113v-918h198v-138h-198v-458h-153v458h-524zM207 581l116 15h244v477l25 183h-6l-64 -163l-235 -408z" />
<glyph unicode="5" d="M136 15l39 136q38 -19 85 -26t108 -7q122 0 197.5 88t77.5 247q-2 165 -77.5 243.5t-209.5 78.5l-141 -11v727h545v-149h-404v-435l72 7q171 -2 269 -117.5t100 -329.5q-2 -120 -35.5 -211.5t-90.5 -154.5t-134 -95t-165 -32q-146 0 -236 41z" />
<glyph unicode="6" d="M108 500q0 226 46.5 403t125 304.5t185 205.5t228.5 103l42 -123q-95 -26 -174 -85.5t-139 -145t-99.5 -192t-54.5 -226.5q28 57 93 99.5t161 42.5q153 0 245.5 -108.5t94.5 -328.5q-2 -106 -26.5 -194.5t-72 -150t-117 -96t-156.5 -34.5q-179 0 -280.5 130t-101.5 396z M258 526.5q0 -26.5 2 -49.5q-2 -70 11.5 -135t42.5 -116t73 -82t103 -31q96 0 156.5 85.5t60.5 236.5q0 313 -225 313q-82 0 -139.5 -51t-80.5 -116q-4 -28 -4 -54.5z" />
<glyph unicode="7" d="M120 1344v147h726v-58l-490 -1433h-153l429 1258l77 105l-102 -19h-487z" />
<glyph unicode="8" d="M124 345q0 143 58 243t174 181q-43 32 -80.5 67.5t-65 80t-43.5 99.5t-16 128q0 173 90.5 272.5t248.5 99.5q146 0 232.5 -90.5t86.5 -247.5q0 -121 -46.5 -215t-146.5 -183q44 -32 85 -70.5t71.5 -86.5t47.5 -109t17 -140q0 -181 -97 -290.5t-269 -109.5q-83 0 -147 28 t-108.5 77t-68 117t-23.5 149zM270 368q0 -108 53 -181.5t156 -73.5q84 0 144 60.5t60 192.5q0 66 -18.5 117.5t-51 91t-73 72t-84.5 62.5q-98 -73 -142 -162t-44 -179zM301 1148q0 -57 17 -103t46.5 -83t68 -68t81.5 -59q73 73 110.5 146.5t37.5 162.5q0 118 -52 176 t-122 58q-45 0 -80.5 -18t-58.5 -50t-35.5 -73.5t-12.5 -88.5z" />
<glyph unicode="9" d="M98 1039q0 221 94.5 349t282.5 128q179 0 278 -132t99 -404q0 -241 -45 -418.5t-123.5 -300.5t-185 -193t-230.5 -94l-40 126q205 53 317.5 214t142.5 404q-44 -62 -98.5 -87.5t-144.5 -25.5q-69 0 -131 26.5t-110 80.5t-77 136.5t-29 190.5zM254 1057q0 -151 61 -232 t164 -81q82 0 138 34.5t82 90.5q4 29 4 53.5v48.5q0 81 -14 154.5t-42.5 130t-73.5 89.5t-106 33q-100 0 -156.5 -87.5t-56.5 -233.5z" />
<glyph unicode=":" horiz-adv-x="437" d="M162 96q0 59 28.5 89t77.5 30t78 -29.5t29 -89.5q0 -62 -29 -92t-78 -30t-77.5 30t-28.5 92zM162 954q0 59 28.5 89t77.5 30t78 -29.5t29 -89.5q0 -62 -29 -92t-78 -30t-77.5 30t-28.5 92z" />
<glyph unicode=";" horiz-adv-x="459" d="M149 -240q28 14 52 38.5t40.5 54t24.5 63t8 65.5q-42 -12 -78 17.5t-36 93.5q0 53 30.5 85t79.5 32q55 0 90.5 -44.5t35.5 -140.5q0 -71 -18 -127.5t-47 -99t-63 -70.5t-65 -40zM181 954q0 59 28.5 89t77.5 30t78 -29.5t29 -89.5q0 -62 -29 -92t-78 -30t-77.5 30 t-28.5 92z" />
<glyph unicode="&#x3c;" horiz-adv-x="882" d="M77 650v61l639 476l83 -116l-407 -309l-158 -81l156 -67l417 -307l-81 -116z" />
<glyph unicode="=" horiz-adv-x="882" d="M75 477v143h732v-143h-732zM75 829v143h732v-143h-732z" />
<glyph unicode="&#x3e;" horiz-adv-x="882" d="M77 1073l85 114l645 -454v-62l-634 -475l-88 113l409 309l156 81l-154 67z" />
<glyph unicode="?" horiz-adv-x="762" d="M69 1419q63 42 138.5 69.5t184.5 27.5q153 0 232 -89.5t79 -244.5q0 -91 -23.5 -164t-57.5 -133t-75 -116t-75.5 -114.5t-58 -125.5t-23.5 -153h-128q-6 94 12 167t50 133.5t69.5 113.5t71 110t56 119.5t22.5 141.5q0 97 -42.5 157t-144.5 60q-62 0 -121.5 -22.5 t-106.5 -56.5zM230 96q0 59 28.5 89t78.5 30q49 0 77.5 -29.5t28.5 -89.5q0 -62 -28.5 -92t-77.5 -30t-78 30t-29 92z" />
<glyph unicode="@" horiz-adv-x="1825" d="M145 502q0 220 65 393.5t174.5 292.5t256.5 183t311 64q158 0 291 -46.5t230.5 -140.5t152.5 -232t55 -321q0 -147 -38.5 -273t-103.5 -217.5t-151.5 -144t-184.5 -52.5q-40 0 -73 11t-53 36.5t-29 68t0 104.5h-9q-24 -43 -55.5 -82.5t-68.5 -70t-81 -49t-90 -18.5 q-90 0 -153 80t-63 231q0 158 35 294.5t96 236.5t142 156.5t172 56.5q62 0 101.5 -21.5t75.5 -57.5l53 62h71l-87 -620q-19 -142 -12 -211.5t63 -69.5q55 0 110.5 36t99 106.5t70 173t26.5 234.5q0 151 -43.5 264.5t-121.5 190.5t-188.5 116t-245.5 39q-138 0 -259 -56 t-210.5 -160.5t-142 -249t-52.5 -323.5q0 -185 47.5 -322t135 -228.5t207 -136t264.5 -44.5q51 0 118 13t116 38l38 -119q-72 -34 -143.5 -48t-149.5 -14q-156 0 -295.5 48.5t-245 152t-167 264.5t-61.5 382zM675 356q0 -96 29 -152.5t97 -56.5q32 0 66 23t67 60.5 t62.5 84.5t51.5 94l58 443q-29 38 -57.5 55.5t-70.5 17.5q-64 0 -119.5 -48t-96 -128t-64 -182.5t-23.5 -210.5z" />
<glyph unicode="A" horiz-adv-x="1006" d="M10 0l450 1514h87l449 -1514h-165l-122 417h-422l-119 -417h-158zM330 561h341l-130 459l-41 224h-4l-40 -228z" />
<glyph unicode="B" horiz-adv-x="1002" d="M136 10v1468q64 12 150 21t187 9q73 0 145.5 -14t129.5 -52t92.5 -107t35.5 -183q0 -55 -13 -110.5t-40.5 -104.5t-69.5 -87.5t-101 -57.5v-8q51 -10 98 -35t83 -69t57.5 -106t21.5 -150q0 -115 -36.5 -199.5t-99.5 -137.5t-145 -78.5t-173 -25.5h-70t-83.5 3.5t-88 8.5 t-80.5 15zM296 145q13 -5 33 -7t44.5 -4t50.5 -3t47 -1q57 0 106 18t86.5 54t59 88.5t21.5 122.5q0 87 -26.5 141.5t-69.5 84.5t-97.5 41t-111.5 11h-143v-546zM296 829h88q30 0 68 2t64 6q79 32 135 103.5t56 175.5q0 71 -19 118.5t-52 75t-77.5 39.5t-94.5 12 q-55 0 -100 -3t-68 -8v-521z" />
<glyph unicode="C" horiz-adv-x="974" d="M92 746q0 213 43.5 359.5t115.5 238t167.5 132t195.5 40.5q102 0 169 -14.5t116 -36.5l-39 -144q-43 24 -100 36.5t-132 12.5t-140.5 -33.5t-117 -107t-81 -192.5t-29.5 -291q0 -311 106.5 -467.5t283.5 -156.5q73 0 130 20t98 47l38 -132q-53 -45 -134 -64t-170 -19 q-114 0 -209.5 42.5t-165 135.5t-107.5 240t-38 354z" />
<glyph unicode="D" horiz-adv-x="1118" d="M136 -2v1493q35 7 76.5 10t84 4t84 2t77.5 1q156 0 264.5 -53t176.5 -152.5t97.5 -237.5t29.5 -309q0 -153 -28.5 -294t-96.5 -247.5t-180 -170t-280 -63.5q-28 0 -70.5 1t-88.5 4.5t-85 5.5t-61 6zM296 136q9 -2 31 -3t46.5 -2t47 -2t32.5 -1q118 0 196.5 51t124.5 137 t65 200t19 242q0 114 -16.5 222.5t-60.5 192t-119 136t-195 52.5h-46t-48.5 -2t-43.5 -4.5t-33 -4.5v-1214z" />
<glyph unicode="E" horiz-adv-x="913" d="M136 0v1491h663v-147h-503v-505h462v-146h-462v-546h513v-147h-673z" />
<glyph unicode="F" horiz-adv-x="878" d="M136 0v1491h663v-147h-503v-527h468v-146h-468v-671h-160z" />
<glyph unicode="G" horiz-adv-x="1047" d="M92 746q0 209 44.5 354.5t120 238t172.5 135t199 42.5t171.5 -13.5t118.5 -37.5l-38 -144q-43 24 -101.5 36.5t-135.5 12.5q-75 0 -142.5 -32.5t-122.5 -105.5t-86.5 -192.5t-31.5 -293.5q0 -320 101 -472t278 -152q110 0 184 53v434l-276 41v94h412v-657 q-59 -55 -153.5 -84t-189.5 -29q-120 0 -216.5 44.5t-165 140t-105.5 240t-37 347.5z" />
<glyph unicode="H" horiz-adv-x="1140" d="M136 0v1491h160v-656h550v656h160v-1491h-160v688h-550v-688h-160z" />
<glyph unicode="I" horiz-adv-x="496" d="M168 0v1491h160v-1491h-160z" />
<glyph unicode="J" horiz-adv-x="512" d="M-55 12l34 139q21 -13 47.5 -19t54.5 -6q39 0 62 17t35.5 48t16 74.5t3.5 98.5v1127h160v-1156q0 -175 -56.5 -265.5t-197.5 -90.5q-34 0 -82 8.5t-77 24.5z" />
<glyph unicode="K" horiz-adv-x="1049" d="M136 0v1491h160v-694l74 30l388 664h183l-390 -643l-74 -68l88 -85l431 -695h-201l-423 691h-76v-691h-160z" />
<glyph unicode="L" horiz-adv-x="882" d="M136 0v1491h160v-1344h558v-147h-718z" />
<glyph unicode="M" horiz-adv-x="1356" d="M136 0v1491h134l360 -733l53 -175h5l51 177l341 731h141v-1491h-160v980l19 225h-9l-67 -211l-301 -647h-53l-315 647l-67 211h-8l30 -225v-980h-154z" />
<glyph unicode="N" horiz-adv-x="1145" d="M136 0v1514h96l552 -967l88 -224h8l-24 224v944h154v-1515h-98l-548 969l-92 235h-6l24 -235v-945h-154z" />
<glyph unicode="O" horiz-adv-x="1168" d="M92 746q0 379 121.5 574.5t369.5 195.5q135 0 228.5 -54t152 -154.5t86 -243t27.5 -318.5q0 -380 -122 -576t-372 -196q-132 0 -225.5 54.5t-153 154.5t-86 243t-26.5 320zM260 746q0 -126 18 -239t56 -198t100 -136t149 -51q161 0 243.5 153t82.5 471q0 123 -17.5 236 t-56 199.5t-100.5 137.5t-152 51q-158 0 -240.5 -153.5t-82.5 -470.5z" />
<glyph unicode="P" horiz-adv-x="959" d="M136 0v1476q69 18 145.5 25t151.5 7q85 0 167.5 -19t149.5 -70t109 -140.5t42 -228.5q0 -134 -39 -228t-104 -152t-149.5 -85t-173.5 -27h-28t-40.5 1.5t-41.5 3.5t-29 4v-567h-160zM296 713q9 -4 27 -5t37.5 -2t37 -1h26.5q60 0 115 15t97.5 54t69.5 106t27 170 q0 90 -25 149t-64 95.5t-92.5 51.5t-110.5 15q-43 0 -82.5 -3t-62.5 -10v-635z" />
<glyph unicode="Q" horiz-adv-x="1168" d="M92 746q0 379 121.5 574.5t369.5 195.5q135 0 228.5 -54t152 -154.5t86 -243t27.5 -318.5q0 -380 -122 -576t-372 -196q-132 0 -225.5 54.5t-153 154.5t-86 243t-26.5 320zM260 746q0 -126 18 -239t56 -198t100 -136t149 -51q161 0 243.5 153t82.5 471q0 123 -17.5 236 t-56 199.5t-100.5 137.5t-152 51q-158 0 -240.5 -153.5t-82.5 -470.5zM362 -106q47 12 94 12q70 0 141.5 -21t143.5 -46.5t150 -47t161 -21.5q77 0 153 21v-145q-42 -14 -81.5 -20t-79.5 -6q-85 0 -167 22.5t-158 48.5t-146.5 48.5t-133.5 22.5q-39 0 -77 -14v146z" />
<glyph unicode="R" horiz-adv-x="1022" d="M136 0v1476q71 16 154.5 24t154.5 8q83 0 157.5 -20.5t130 -68t88.5 -125.5t33 -195q0 -177 -73.5 -283.5t-194.5 -142.5l81 -79l294 -594h-186l-319 650l-160 31v-681h-160zM296 788h128q122 0 191.5 74.5t69.5 228.5q0 117 -58 193.5t-174 76.5q-42 0 -88 -3t-69 -10 v-560z" />
<glyph unicode="S" horiz-adv-x="911" d="M71 51l55 147q40 -28 113.5 -52t167.5 -24q119 0 193.5 58t74.5 184q0 83 -42.5 145t-106.5 114t-137.5 102t-137.5 110.5t-106.5 140t-42.5 189.5q0 179 107.5 265t280.5 86q106 0 189 -19t134 -48l-51 -142q-38 24 -109.5 43.5t-164.5 19.5q-116 0 -171 -57t-55 -142 q0 -75 42.5 -132t106.5 -108t137.5 -103.5t137.5 -116t106.5 -144.5t42.5 -193q0 -187 -110.5 -293.5t-313.5 -106.5q-128 0 -209.5 23.5t-130.5 53.5z" />
<glyph unicode="T" horiz-adv-x="951" d="M30 1344v147h892v-147h-366v-1344h-160v1344h-366z" />
<glyph unicode="U" horiz-adv-x="1109" d="M136 458v1033h160v-950q0 -116 15 -194.5t49 -127t85 -70t126 -21.5q140 0 194.5 97.5t54.5 315.5v950h153v-999q0 -270 -105.5 -390.5t-298.5 -120.5q-226 0 -329.5 117t-103.5 360z" />
<glyph unicode="V" horiz-adv-x="985" d="M-4 1491h177l291 -1020l38 -229h4l43 233l278 1016h163l-451 -1515h-86z" />
<glyph unicode="W" horiz-adv-x="1431" d="M10 1491h173l205 -987l25 -248h4l26 253l238 982h92l239 -985l25 -250h2l30 253l189 982h161l-333 -1515h-98l-236 983l-30 228h-6l-31 -230l-236 -981h-100z" />
<glyph unicode="X" horiz-adv-x="1064" d="M41 0l392 758l-358 733h191l232 -505l43 -126l42 126l246 505h177l-372 -718l388 -773h-187l-258 535l-49 132l-44 -132l-265 -535h-178z" />
<glyph unicode="Y" horiz-adv-x="968" d="M10 1491h188l269 -650l27 -130h4l28 135l260 645h173l-392 -897v-594h-160v592z" />
<glyph unicode="Z" horiz-adv-x="934" d="M61 0v147l593 1111l70 86h-663v147h813v-147l-595 -1118l-68 -79h663v-147h-813z" />
<glyph unicode="[" horiz-adv-x="527" d="M136 -490v1981h333v-139h-179v-1704h179v-138h-333z" />
<glyph unicode="\" horiz-adv-x="672" d="M-59 1467l130 49l632 -1766l-128 -48z" />
<glyph unicode="]" horiz-adv-x="527" d="M61 -352h177v1704h-177v139h331v-1981h-331v138z" />
<glyph unicode="^" horiz-adv-x="876" d="M85 927l322 587h64l295 -587h-159l-132 287l-38 147l-51 -149l-154 -285h-147z" />
<glyph unicode="_" horiz-adv-x="711" d="M0 -298h711v-139h-711v139z" />
<glyph unicode="`" horiz-adv-x="542" d="M128 1489v45h177l110 -318h-87z" />
<glyph unicode="a" horiz-adv-x="851" d="M61 285q0 91 31.5 153t87.5 100.5t134 54.5t174 16h42t45 -2q6 66 6 117q0 122 -36 170.5t-132 48.5q-59 0 -129.5 -18t-117.5 -45l-51 122q62 38 150.5 59t185.5 21q90 0 144.5 -26.5t85 -72.5t40 -104.5t9.5 -122.5q0 -128 -5 -249t-5 -230q0 -81 5 -150.5t21 -130.5 h-118l-36 126h-9q-32 -55 -93.5 -96t-166.5 -41q-115 0 -188.5 80t-73.5 220zM222 303q0 -86 41.5 -132.5t106.5 -46.5q90 0 139 42.5t68 93.5v226q-21 2 -42 3t-43 1q-51 0 -100 -8.5t-87.5 -29.5t-60.5 -57.5t-22 -91.5z" />
<glyph unicode="b" horiz-adv-x="923" d="M126 55v1436h153v-507h6q87 106 233 107q164 0 246 -130t82 -412q0 -287 -110 -427.5t-310 -140.5q-97 0 -178.5 22.5t-121.5 51.5zM279 156q30 -17 73.5 -26.5t92.5 -9.5q110 0 175 105t65 324q0 92 -11.5 165.5t-35.5 126.5t-63.5 82t-95.5 29q-77 0 -126.5 -46 t-73.5 -124v-626z" />
<glyph unicode="c" horiz-adv-x="758" d="M79 532q0 273 96.5 416t277.5 143q84 0 143.5 -15t102.5 -39l-43 -134q-85 49 -185 49q-115 0 -174 -101t-59 -319q0 -87 13 -163.5t42.5 -133t76.5 -89.5t118 -33q55 0 103 19t78 45l44 -124q-53 -41 -121 -60t-143 -19q-102 0 -172 39.5t-113.5 113.5t-64 177 t-20.5 228z" />
<glyph unicode="d" horiz-adv-x="921" d="M79 530q0 273 103 413.5t285 140.5q61 0 97.5 -7.5t78.5 -24.5v439h154v-1125q0 -108 2 -196.5t14 -173.5h-104l-34 128h-8q-31 -64 -94.5 -107t-153.5 -43q-173 0 -256.5 134t-83.5 422zM238 528q0 -93 12 -169t36.5 -131t64 -85t96.5 -30q153 0 196 181v602 q-30 26 -67 37.5t-99 11.5q-113 0 -176 -101.5t-63 -315.5z" />
<glyph unicode="e" horiz-adv-x="878" d="M79 532q0 273 100 416t283 143q59 0 118 -15t106 -60t75.5 -126t28.5 -211q0 -36 -3 -77t-7 -86h-542q0 -92 15 -166.5t47 -126.5t82.5 -81t123.5 -29q58 0 114.5 21.5t86.5 50.5l55 -112q-51 -47 -130 -73t-165 -26q-100 0 -174 39.5t-121.5 113.5t-70 176t-22.5 229z M240 643h403v24q0 143 -45 211q-49 74 -134 74q-98 0 -155 -74.5t-69 -234.5z" />
<glyph unicode="f" horiz-adv-x="547" d="M34 927v138h130v59q0 201 57.5 290.5t195.5 89.5q55 0 100.5 -6.5t91.5 -27.5l-38 -133q-39 17 -71.5 23t-62.5 6q-43 0 -66.5 -17.5t-35.5 -54t-15 -92.5t-3 -137h222v-138h-222v-927h-153v927h-130z" />
<glyph unicode="g" horiz-adv-x="919" d="M79 528q0 275 105.5 415.5t311.5 140.5q100 0 173 -19t128 -45v-1069q0 -207 -91.5 -304.5t-266.5 -97.5q-106 0 -174.5 18t-111.5 41l45 132q42 -19 93.5 -36t125.5 -17q130 0 178 72.5t48 242.5v79h-7q-34 -49 -87 -77t-136 -28q-173 0 -253.5 133t-80.5 419zM238 530 q0 -89 11 -164.5t36.5 -132t65 -87.5t96.5 -31q81 0 128 43t68 127v627q-62 33 -158 33h-6q-108 0 -174.5 -98.5t-66.5 -316.5z" />
<glyph unicode="h" horiz-adv-x="937" d="M126 0v1491h153v-526h6q43 55 105.5 90.5t156.5 35.5q71 0 123 -19.5t86 -66t51.5 -124.5t17.5 -193v-688h-154v648q0 149 -35 226.5t-140 77.5q-75 0 -135 -53t-82 -135v-764h-153z" />
<glyph unicode="i" horiz-adv-x="461" d="M124 1388q0 51 28.5 83.5t75.5 32.5t78 -31.5t31 -84.5q0 -51 -31 -79.5t-78 -28.5t-75.5 30t-28.5 78zM151 0v1065h154v-1065h-154z" />
<glyph unicode="j" horiz-adv-x="457" d="M8 -309q47 0 76 19.5t45 59t20 97.5t4 137v1061h154v-1122q0 -220 -71 -317q-56 -78 -169 -78q-28 0 -59 5v138zM124 1388q0 51 28.5 83.5t75.5 32.5t78 -31.5t31 -84.5q0 -51 -31 -79.5t-78 -28.5t-75.5 30t-28.5 78z" />
<glyph unicode="k" horiz-adv-x="825" d="M126 0v1491h153v-908l70 31l249 451h177l-251 -431l-75 -67l88 -83l274 -484h-185l-268 479h-79v-479h-153z" />
<glyph unicode="l" horiz-adv-x="496" d="M136 203v1288h154v-1237q0 -75 20 -107t56 -32q45 0 105 23l15 -123q-28 -17 -78 -28t-91 -11q-81 0 -131 50.5t-50 176.5z" />
<glyph unicode="m" horiz-adv-x="1386" d="M126 0v1065h108l28 -113h6q45 61 107 100t157 39q82 0 134 -35.5t82 -124.5q38 75 109.5 117.5t156.5 42.5q71 0 121 -18t80.5 -64t45.5 -122t15 -190v-697h-154v677q0 138 -26.5 206.5t-122.5 68.5q-81 0 -128.5 -50t-66.5 -136v-766h-154v632q0 86 -5 146.5t-22.5 99 t-47 56.5t-78.5 18q-73 0 -123 -56.5t-69 -129.5v-766h-153z" />
<glyph unicode="n" horiz-adv-x="934" d="M126 0v1065h110l28 -113h6q41 57 110 98t165 41q69 0 121 -19.5t87 -65t53.5 -122.5t18.5 -193v-691h-154v650q0 160 -37.5 231t-133.5 71q-85 0 -140 -51t-81 -126v-775h-153z" />
<glyph unicode="o" horiz-adv-x="919" d="M79 532q0 288 99 423.5t282 135.5q195 0 288 -139t93 -420q0 -290 -100 -424t-281 -134q-196 0 -288.5 139t-92.5 419zM238 532q0 -93 12 -170t38.5 -132t69 -86t102.5 -31q110 0 165.5 99t55.5 320q0 92 -11.5 170t-38 133t-69 86t-102.5 31q-108 0 -165 -100t-57 -320z " />
<glyph unicode="p" horiz-adv-x="925" d="M126 -426v1491h108l24 -115h8q79 140 248 141q168 0 252 -126t84 -412q0 -134 -27.5 -241t-78.5 -183t-125 -115.5t-163 -39.5q-62 0 -98.5 8t-78.5 30v-438h-153zM279 168q30 -26 67.5 -40.5t98.5 -14.5q113 0 179.5 115t66.5 328q0 90 -12 162t-37.5 124t-65 81 t-97.5 29q-156 0 -200 -190v-594z" />
<glyph unicode="q" horiz-adv-x="919" d="M79 528q0 275 108.5 415.5t314.5 140.5q90 0 171 -21.5t124 -44.5v-1444h-154v513h-9q-34 -53 -86 -83t-135 -30q-169 0 -251.5 135.5t-82.5 418.5zM238 530q0 -89 11 -166t35.5 -133t64 -87t96.5 -31q81 0 128 47t70 136v613q-60 36 -168 36q-110 0 -173.5 -101.5 t-63.5 -313.5z" />
<glyph unicode="r" horiz-adv-x="583" d="M126 0v1065h108l28 -113h6q30 61 78 96.5t116 35.5q49 0 111 -19l-30 -156q-55 19 -98 20q-69 0 -111 -39.5t-55 -105.5v-784h-153z" />
<glyph unicode="s" horiz-adv-x="719" d="M61 41l47 134q43 -26 101.5 -44t120.5 -18q70 0 119 35t49 114q0 66 -29.5 108.5t-75.5 77t-99.5 63t-99 69t-75.5 95.5t-30 140q0 137 73.5 206.5t207.5 69.5q88 0 152 -16t110 -44l-40 -128q-41 21 -94 35t-108 14q-77 0 -112.5 -32t-35.5 -100q0 -54 30.5 -90.5 t76 -68t98.5 -63t99 -75.5t76 -104.5t30 -152.5q0 -59 -19 -112.5t-58.5 -93t-98.5 -63t-137 -23.5q-94 0 -162.5 18t-115.5 49z" />
<glyph unicode="t" horiz-adv-x="585" d="M19 927v138h130v211l154 49v-260h229v-138h-229v-635q0 -93 22 -135t73 -42q43 0 73.5 9.5t67.5 24.5l30 -121q-47 -24 -103.5 -38t-118.5 -14q-106 0 -152 69.5t-46 224.5v657h-130z" />
<glyph unicode="u" horiz-adv-x="923" d="M110 374v691h154v-652q0 -162 33 -231t120 -69q45 0 80 18t63 48t49 68t34 79v739h154v-762q0 -77 5 -159.5t15 -143.5h-108l-38 149h-6q-37 -71 -105 -123t-170 -52q-69 0 -120 17t-87 62t-54.5 123t-18.5 198z" />
<glyph unicode="v" horiz-adv-x="825" d="M8 1065h175l201 -624l42 -211h5l38 215l187 620h161l-364 -1089h-73z" />
<glyph unicode="w" horiz-adv-x="1256" d="M10 1065h165l164 -620l25 -207h4l39 211l174 616h114l189 -622l38 -205h5l32 209l144 618h145l-283 -1089h-87l-216 699l-30 179h-4l-30 -181l-208 -697h-87z" />
<glyph unicode="x" horiz-adv-x="876" d="M41 0l302 545l-282 520h184l157 -305l43 -119l45 119l162 305h168l-283 -512l300 -553h-175l-178 335l-47 127l-49 -127l-179 -335h-168z" />
<glyph unicode="y" horiz-adv-x="800" d="M15 1065h174l201 -689l45 -205h10l32 205l162 689h156l-254 -957q-30 -115 -60 -215t-64.5 -173.5t-78.5 -115t-104 -41.5q-59 0 -104 20l26 145q30 -11 59.5 -4.5t56 36t49 88t39.5 152.5z" />
<glyph unicode="z" horiz-adv-x="766" d="M69 0v138l395 697l75 92h-470v138h622v-138l-399 -703l-73 -86h472v-138h-622z" />
<glyph unicode="{" horiz-adv-x="600" d="M92 433v138q65 0 100.5 42.5t35.5 136.5v526q0 100 39.5 158.5t128.5 58.5h157v-138h-82q-49 0 -69 -27t-20 -95v-520q0 -93 -35.5 -142t-84.5 -59v-14q49 -8 84.5 -65t35.5 -146v-517q0 -65 20 -93.5t71 -28.5h80v-138h-157q-168 0 -168 215v517q0 108 -35 149.5 t-101 41.5z" />
<glyph unicode="|" horiz-adv-x="404" d="M138 -277v1768h130v-1768h-130z" />
<glyph unicode="}" horiz-adv-x="600" d="M47 -352h81q51 0 71 28t20 94v517q0 89 35.5 146t84.5 65v14q-49 10 -84.5 59t-35.5 142v520q0 69 -20 95.5t-69 26.5h-83v138h158q89 0 128 -58.5t39 -158.5v-526q0 -94 35.5 -136.5t101.5 -42.5v-138q-66 0 -101.5 -40.5t-35.5 -150.5v-517q0 -215 -167 -215h-158v138z " />
<glyph unicode="~" horiz-adv-x="882" d="M49 769q77 70 139 97.5t115 27.5q49 0 91.5 -18t81 -38.5t75.5 -38t75 -17.5q30 0 64 14.5t70 55.5l73 -128q-69 -57 -122 -79.5t-97 -22.5q-47 0 -86.5 18t-77 40.5t-74.5 40.5t-78 18q-38 0 -81.5 -21t-96.5 -75z" />
<glyph unicode="&#xa1;" horiz-adv-x="525" d="M128 969q0 62 28.5 92t77.5 30t78 -30t29 -92q0 -59 -29 -89t-78 -30t-77.5 29.5t-28.5 89.5zM154 313l31 376h95l33 -376v-739h-159v739z" />
<glyph unicode="&#xa2;" d="M162 532q0 243 80.5 384t234.5 168v194h139v-189q57 -4 101.5 -17t81.5 -35l-43 -134q-32 18 -71 30t-82 17v-837q53 5 96 24t70 42l44 -122q-38 -32 -90 -50.5t-107 -25.5v-194h-139v192q-87 13 -147 57.5t-97 116t-54 168t-17 211.5zM315 532q6 -76 16 -143.5 t31.5 -120.5t55 -91.5t82.5 -52.5v819q-91 -24 -135 -123.5t-50 -287.5z" />
<glyph unicode="&#xa3;" d="M89 0v142q53 3 93 28.5t65 67t38 94t13 103.5q0 73 -13 130t-29 110h-167v138h116q-21 62 -36.5 132.5t-15.5 166.5q0 207 98 305.5t265 98.5q104 0 180.5 -17t130.5 -42l-52 -136q-41 21 -103.5 37t-151.5 16q-98 0 -152.5 -68t-54.5 -200q0 -90 19.5 -158t41.5 -135 h272v-138h-222q15 -49 24.5 -104t9.5 -124q0 -61 -18 -134t-50 -117l-83 -74v-9l126 29h427v-142h-771z" />
<glyph unicode="&#xa4;" d="M6 382l145 146l64 41q-59 79 -59 193q0 55 15.5 103.5t43.5 89.5l-64 39l-145 148l92 91l147 -142l40 -67q79 62 194 62q56 0 105.5 -15.5t88.5 -46.5l40 67l149 142l90 -91l-143 -148l-65 -39q59 -83 59 -193q0 -119 -59 -193l65 -41l143 -146l-90 -92l-149 145l-38 63 q-83 -59 -196 -59q-115 0 -194 59l-40 -63l-147 -145zM287 762q0 -87 53.5 -143t138.5 -56q86 0 140 56t54 143q0 84 -54 141.5t-140 57.5q-85 0 -138.5 -57.5t-53.5 -141.5z" />
<glyph unicode="&#xa5;" d="M6 1491h187l269 -650l28 -130h4l28 135l260 645h173l-350 -796h170v-124h-212v-152h212v-123h-212v-296h-161v296h-213v123h213v152h-213v124h169z" />
<glyph unicode="&#xa6;" horiz-adv-x="402" d="M136 -277v716h130v-716h-130zM136 775v716h130v-716h-130z" />
<glyph unicode="&#xa7;" horiz-adv-x="862" d="M96 752q0 65 27.5 130t77.5 114l71 33q-46 36 -79 87t-33 140q0 114 71.5 187t211.5 73q89 0 155.5 -17t112.5 -40l-38 -132q-45 21 -99 36t-114 15q-77 0 -112 -36.5t-35 -89.5q0 -55 34.5 -89.5t84.5 -61t108 -52t108.5 -64t84 -96.5t33.5 -150q0 -65 -25 -132.5 t-74 -116.5l-77 -30q44 -35 78.5 -87t34.5 -139q0 -128 -80 -194t-210 -66q-90 0 -153.5 16t-110.5 46l40 130q41 -24 94.5 -38.5t112.5 -14.5q153 0 153 129q0 51 -33.5 84.5t-83.5 60t-109 52t-109 65t-84 98t-34 150.5zM250 756q0 -49 20 -84.5t54 -62t77.5 -46.5 t90.5 -41q47 30 84.5 87.5t37.5 125.5q0 51 -20.5 85t-55 58.5t-78 44.5t-90.5 42q-51 -30 -85.5 -81t-34.5 -128z" />
<glyph unicode="&#xa8;" horiz-adv-x="776" d="M128 1390q0 49 24.5 77.5t66.5 28.5q43 0 67.5 -28.5t24.5 -77.5q0 -44 -24.5 -71.5t-67.5 -27.5q-42 0 -66.5 27.5t-24.5 71.5zM467 1390q0 49 24.5 77.5t66.5 28.5q43 0 67.5 -28.5t24.5 -77.5q0 -44 -24.5 -71.5t-67.5 -27.5q-42 0 -66.5 27.5t-24.5 71.5z" />
<glyph unicode="&#xa9;" horiz-adv-x="1475" d="M106 624q0 149 50.5 266.5t137 198t201 124t244.5 43.5t245 -43.5t201.5 -124t136.5 -198t50 -266.5t-50 -266.5t-136.5 -199t-201.5 -124t-245 -42.5q-144 0 -260.5 42.5t-199.5 124t-128 199t-45 266.5zM234 624q0 -124 39.5 -219.5t107.5 -160.5t159.5 -99.5 t198.5 -34.5q104 0 197 34.5t161 99.5t107.5 160.5t39.5 219.5t-39.5 219.5t-107.5 160.5t-161 99.5t-197 34.5q-106 0 -198 -34.5t-160 -99.5t-107.5 -160.5t-39.5 -219.5zM439 624q0 164 82 252.5t216 88.5q66 0 106.5 -13t93.5 -36l-47 -117q-40 18 -75 27t-61 9 q-75 0 -118.5 -48t-43.5 -163q0 -211 177 -211q81 0 143 34l38 -117q-43 -24 -94 -36.5t-119 -12.5q-144 0 -221 93t-77 250z" />
<glyph unicode="&#xaa;" horiz-adv-x="672" d="M77 1004q0 70 29.5 116.5t80.5 74.5t118 37.5t146 5.5q5 85 -13.5 121t-85.5 36q-62 0 -116.5 -13.5t-90.5 -31.5l-35 101q45 24 116.5 40.5t161.5 16.5q113 0 153 -55.5t42 -159.5q-2 -147 -8 -268.5t17 -215.5h-106l-26 90h-7q-20 -37 -62 -67.5t-112 -30.5 q-96 0 -149 54t-53 149zM211 1016q0 -43 23.5 -71.5t70.5 -28.5q63 0 96.5 31t49.5 63v120q-44 3 -87 1.5t-76.5 -11.5t-55 -34.5t-21.5 -69.5z" />
<glyph unicode="&#xab;" horiz-adv-x="821" d="M61 551l276 490l106 -72l-175 -328l-81 -88l81 -76l188 -321l-109 -75zM380 551l270 486l102 -70l-171 -326l-81 -88l81 -76l181 -319l-102 -73z" />
<glyph unicode="&#xac;" horiz-adv-x="882" d="M77 685v148h730v-407h-138v259h-592z" />
<glyph unicode="&#xad;" horiz-adv-x="618" d="M100 535v146h420v-146h-420z" />
<glyph unicode="&#xae;" horiz-adv-x="1258" d="M153 1044q0 116 38.5 203.5t103.5 148.5t151 91.5t182 30.5q100 0 187.5 -30.5t151.5 -91.5t101.5 -149t37.5 -203t-38.5 -204.5t-103.5 -150.5t-151.5 -91.5t-184.5 -30.5q-100 0 -186 30.5t-150 91.5t-101.5 150.5t-37.5 204.5zM268 1044q0 -93 29 -163t78 -116.5 t113.5 -69t139.5 -22.5q79 0 145 22.5t114 68t75.5 114.5t27.5 166q0 92 -28.5 161t-77.5 116t-115 69t-141 22q-79 0 -145 -22t-114 -69t-74.5 -116t-26.5 -161zM443 809v467q30 8 82 13.5t99 5.5q75 0 129 -32t54 -109q0 -57 -36 -88t-92 -35l51 -23l132 -199h-110 l-128 187l-87 28v-215h-94zM537 1077h61q108 0 109 73q0 64 -104 64q-16 0 -36 -1t-30 -8v-128z" />
<glyph unicode="&#xaf;" horiz-adv-x="772" d="M128 1244v126h518v-126h-518z" />
<glyph unicode="&#xb0;" horiz-adv-x="728" d="M132 1216q0 134 68 217t182 83q110 0 180 -77.5t70 -222.5t-70 -222.5t-180 -77.5q-114 0 -182 77.5t-68 222.5zM254 1216q0 -83 34.5 -135t93.5 -52q57 0 93.5 52.5t36.5 134.5q0 83 -36.5 135.5t-93.5 52.5q-58 0 -93 -52.5t-35 -135.5z" />
<glyph unicode="&#xb1;" horiz-adv-x="882" d="M75 384v142h734v-142h-734zM75 856v143h295v330h144v-330h295v-143h-295v-224h-144v224h-295z" />
<glyph unicode="&#xb2;" horiz-adv-x="702" d="M94 809v68q44 45 103 114t112 148t89.5 162t36.5 158q0 63 -33.5 97.5t-82.5 34.5q-47 0 -90.5 -15t-72.5 -36l-43 110q43 34 105.5 51.5t124.5 17.5q108 0 167 -62t59 -177q0 -69 -18.5 -133.5t-49 -127.5t-72 -124t-86.5 -120l-79 -68v-5l98 33h239v-126h-507z" />
<glyph unicode="&#xb3;" horiz-adv-x="702" d="M122 833l27 118q32 -16 69.5 -25.5t82.5 -9.5q81 0 122 43.5t39 121.5q2 69 -35 111.5t-124 42.5h-94v49l163 254l63 57l-88 -12h-223v120h449v-67l-175 -269l-44 -36v-6l42 6q96 0 150.5 -67t51.5 -183q2 -130 -77.5 -208.5t-207.5 -78.5q-61 0 -108 10.5t-83 28.5z" />
<glyph unicode="&#xb4;" horiz-adv-x="521" d="M128 1216l100 318h166v-45l-175 -273h-91z" />
<glyph unicode="&#xb6;" horiz-adv-x="858" d="M61 1077q0 84 20.5 159.5t59 132t92.5 89.5t125 33h87v-1768h-130v937q-57 0 -103 33t-80 90.5t-52.5 133t-18.5 160.5zM592 -277v1768h130v-1768h-130z" />
<glyph unicode="&#xb7;" horiz-adv-x="453" d="M121 628q0 59 28.5 89t77.5 30t78 -29.5t29 -89.5q0 -62 -29 -92t-78 -30t-77.5 30t-28.5 92z" />
<glyph unicode="&#xb8;" horiz-adv-x="557" d="M128 -435l14 83q49 -4 78.5 2.5t44 19.5t18.5 29t4 31q0 59 -147 79l86 191h106l-40 -92q139 -32 139 -160q0 -83 -61 -137t-163 -54q-43 0 -79 8z" />
<glyph unicode="&#xb9;" horiz-adv-x="702" d="M96 1499l266 220h87v-789h160v-121h-475v121h179v548l13 76l-47 -59l-128 -85z" />
<glyph unicode="&#xba;" horiz-adv-x="687" d="M73 1154q0 98 20 167t57 113t87 63t108 19q57 0 107 -18t87.5 -59.5t58 -112t20.5 -172.5t-20.5 -172t-58 -111.5t-87.5 -60t-107 -18.5t-107.5 18.5t-87.5 60t-57 111.5t-20 172zM211 1154q0 -138 37 -191.5t97 -53.5q30 0 54.5 11t41.5 37.5t26.5 74.5t9.5 122 q0 73 -9.5 121t-26.5 75.5t-42 38.5t-54 11q-32 0 -56.5 -11t-41.5 -38.5t-26.5 -75.5t-9.5 -121z" />
<glyph unicode="&#xbb;" horiz-adv-x="821" d="M59 967l103 70l281 -466l-270 -486l-104 68l171 329l81 87l-81 77zM366 969l109 72l285 -470l-274 -490l-110 70l177 331l81 87l-81 77z" />
<glyph unicode="&#xbc;" horiz-adv-x="1453" d="M72 1289l264 217h87v-910h-136v672l13 76l-47 -62l-125 -87zM255 34l821 1484l104 -57l-818 -1487zM734 201v71l386 640h95v-593h139v-118h-139v-205h-130v205h-351zM870 311l88 8h127v266l15 114h-8l-39 -106l-125 -218z" />
<glyph unicode="&#xbd;" horiz-adv-x="1492" d="M72 1289l264 217h87v-910h-136v672l13 76l-47 -62l-125 -87zM255 34l821 1484l104 -57l-818 -1487zM889 0v68q44 45 103 114t112 148t89.5 162t36.5 158q0 63 -33.5 97.5t-82.5 34.5q-47 0 -90.5 -15t-72.5 -36l-43 110q43 34 105.5 51.5t124.5 17.5q108 0 167 -62 t59 -177q0 -69 -18.5 -133.5t-49 -127.5t-72 -124t-86.5 -120l-79 -68v-5l98 33h239v-126h-507z" />
<glyph unicode="&#xbe;" horiz-adv-x="1512" d="M101 620l27 118q32 -16 69.5 -25.5t82.5 -9.5q81 0 122 43.5t39 121.5q2 69 -35 111.5t-124 42.5h-94v49l163 254l63 57l-88 -12h-223v120h449v-67l-175 -269l-44 -36v-6l42 6q96 0 150.5 -67t51.5 -183q2 -130 -77.5 -208.5t-207.5 -78.5q-61 0 -108 10.5t-83 28.5z M315 34l821 1484l104 -57l-818 -1487zM795 201v71l386 640h95v-593h139v-118h-139v-205h-130v205h-351zM931 311l88 8h127v266l15 114h-8l-39 -106l-125 -218z" />
<glyph unicode="&#xbf;" horiz-adv-x="762" d="M68 -117q0 91 23.5 164t57.5 133t75 116t75.5 114.5t58 125.5t23.5 153h128q6 -94 -12 -167t-50 -133.5t-69.5 -113.5t-71 -110t-56 -119.5t-22.5 -141.5q0 -97 42.5 -157t144.5 -60q62 0 121.5 22.5t106.5 56.5l59 -120q-63 -42 -138.5 -69.5t-184.5 -27.5 q-153 0 -232 89.5t-79 244.5zM328 969q0 62 28.5 92t77.5 30t78 -30t29 -92q0 -59 -28.5 -89t-78.5 -30q-49 0 -77.5 29.5t-28.5 89.5z" />
<glyph unicode="&#xc0;" horiz-adv-x="1006" d="M10 0l450 1514h87l449 -1514h-165l-122 417h-422l-119 -417h-158zM234 1809v44h211l198 -251h-139zM330 561h341l-130 459l-41 224h-4l-40 -228z" />
<glyph unicode="&#xc1;" horiz-adv-x="1006" d="M10 0l450 1514h87l449 -1514h-165l-122 417h-422l-119 -417h-158zM330 561h341l-130 459l-41 224h-4l-40 -228zM360 1602l198 251h211v-44l-279 -207h-130z" />
<glyph unicode="&#xc2;" horiz-adv-x="1006" d="M10 0l450 1514h87l449 -1514h-165l-122 417h-422l-119 -417h-158zM226 1591v47l228 215h106l217 -217v-45h-140l-100 104l-32 75l-33 -73l-110 -106h-136zM330 561h341l-130 459l-41 224h-4l-40 -228z" />
<glyph unicode="&#xc3;" horiz-adv-x="1006" d="M10 0l450 1514h87l449 -1514h-165l-122 417h-422l-119 -417h-158zM213 1661q59 73 109 99.5t95 26.5q34 0 65 -10.5t60 -22.5t55.5 -22.5t54.5 -10.5q24 0 45.5 8.5t45.5 34.5l55 -79q-51 -59 -95.5 -80.5t-82.5 -21.5q-33 0 -62.5 10.5t-58 22.5t-56.5 22t-57 10 q-31 0 -59.5 -12.5t-62.5 -48.5zM330 561h341l-130 459l-41 224h-4l-40 -228z" />
<glyph unicode="&#xc4;" horiz-adv-x="1006" d="M10 0l450 1514h87l449 -1514h-165l-122 417h-422l-119 -417h-158zM236 1691q0 45 26.5 72.5t73.5 27.5q44 0 71 -27.5t27 -72.5t-27 -71.5t-71 -26.5q-47 0 -73.5 26.5t-26.5 71.5zM330 561h341l-130 459l-41 224h-4l-40 -228zM572 1691q0 45 27 72.5t72 27.5 q46 0 72.5 -27.5t26.5 -72.5t-26.5 -71.5t-72.5 -26.5q-45 0 -72 26.5t-27 71.5z" />
<glyph unicode="&#xc5;" horiz-adv-x="1006" d="M10 0l435 1463q-63 17 -96.5 60.5t-33.5 112.5q0 79 45 130t146 49q92 2 142.5 -44t50.5 -135q0 -66 -34.5 -112t-101.5 -61l433 -1463h-165l-122 417h-422l-119 -417h-158zM330 561h341l-130 459l-41 224h-4l-40 -228zM431 1636q0 -39 18 -63t57 -24q77 0 77 87 q0 91 -77 94q-75 -3 -75 -94z" />
<glyph unicode="&#xc6;" horiz-adv-x="1453" d="M-38 0l713 1491h667v-147h-505v-505h462v-146h-462v-546h513v-147h-673v424h-351l-192 -424h-172zM396 567h281v687h-6l-55 -208z" />
<glyph unicode="&#xc7;" horiz-adv-x="974" d="M92 746q0 213 43.5 359.5t115.5 238t167.5 132t195.5 40.5q102 0 169 -14.5t116 -36.5l-39 -144q-43 24 -100 36.5t-132 12.5t-140.5 -33.5t-117 -107t-81 -192.5t-29.5 -291q0 -311 106.5 -466.5t283.5 -155.5q73 0 130 20t98 47l38 -134q-44 -38 -110.5 -57t-140.5 -24 l-31 -68q139 -32 139 -160q0 -83 -60.5 -137t-163.5 -54q-43 0 -78 8l15 83q49 -4 77.5 2.5t43.5 19.5t19 29t4 31q0 59 -146 79l74 170q-101 9 -188 56.5t-148.5 140t-95.5 233t-34 337.5z" />
<glyph unicode="&#xc8;" horiz-adv-x="913" d="M136 0v1491h663v-147h-503v-505h462v-146h-462v-546h513v-147h-673zM160 1809v44h211l198 -251h-139z" />
<glyph unicode="&#xc9;" horiz-adv-x="913" d="M136 0v1491h663v-147h-503v-505h462v-146h-462v-546h513v-147h-673zM352 1602l198 251h211v-44l-279 -207h-130z" />
<glyph unicode="&#xca;" horiz-adv-x="913" d="M136 0v1491h663v-147h-503v-505h462v-146h-462v-546h513v-147h-673zM181 1591v47l228 215h106l217 -217v-45h-140l-100 104l-32 75l-33 -73l-110 -106h-136z" />
<glyph unicode="&#xcb;" horiz-adv-x="913" d="M136 0v1491h663v-147h-503v-505h462v-146h-462v-546h513v-147h-673zM191 1691q0 45 26.5 72.5t73.5 27.5q44 0 71 -27.5t27 -72.5t-27 -71.5t-71 -26.5q-47 0 -73.5 26.5t-26.5 71.5zM527 1691q0 45 27 72.5t72 27.5q46 0 72.5 -27.5t26.5 -72.5t-26.5 -71.5t-72.5 -26.5 q-45 0 -72 26.5t-27 71.5z" />
<glyph unicode="&#xcc;" horiz-adv-x="496" d="M-2 1809v44h211l198 -251h-139zM168 0v1491h160v-1491h-160z" />
<glyph unicode="&#xcd;" horiz-adv-x="496" d="M102 1602l198 251h211v-44l-279 -207h-130zM168 0v1491h160v-1491h-160z" />
<glyph unicode="&#xce;" horiz-adv-x="496" d="M-28 1591v47l228 215h106l217 -217v-45h-140l-100 104l-32 75l-33 -73l-110 -106h-136zM168 0v1491h160v-1491h-160z" />
<glyph unicode="&#xcf;" horiz-adv-x="496" d="M-17 1691q0 45 26.5 72.5t73.5 27.5q44 0 71 -27.5t27 -72.5t-27 -71.5t-71 -26.5q-47 0 -73.5 26.5t-26.5 71.5zM168 0v1491h160v-1491h-160zM319 1691q0 45 27 72.5t72 27.5q46 0 72.5 -27.5t26.5 -72.5t-26.5 -71.5t-72.5 -26.5q-45 0 -72 26.5t-27 71.5z" />
<glyph unicode="&#xd0;" horiz-adv-x="1130" d="M-2 711v126h151v654q34 7 75.5 10t84.5 4t84.5 2t77.5 1q156 0 264 -53t176.5 -152.5t98 -237.5t29.5 -309q0 -153 -28.5 -294t-96.5 -247.5t-180 -170t-281 -63.5q-28 0 -70 1t-87.5 4.5t-85 5.5t-61.5 6v713h-151zM309 136q8 -2 30.5 -3t47 -2t47 -2t33.5 -1 q117 0 196 51t124.5 137t65 200t19.5 242q0 114 -17.5 222.5t-61 192t-119 136t-195.5 52.5h-45t-48.5 -2t-44 -4.5t-32.5 -4.5v-513h249v-126h-249v-575z" />
<glyph unicode="&#xd1;" horiz-adv-x="1145" d="M136 0v1514h96l552 -967l88 -224h8l-24 224v944h154v-1515h-98l-548 969l-92 235h-6l24 -235v-945h-154zM288 1661q59 73 109 99.5t95 26.5q34 0 65 -10.5t60 -22.5t55.5 -22.5t54.5 -10.5q24 0 45.5 8.5t45.5 34.5l55 -79q-51 -59 -95.5 -80.5t-82.5 -21.5 q-33 0 -62.5 10.5t-58 22.5t-56.5 22t-57 10q-31 0 -59.5 -12.5t-62.5 -48.5z" />
<glyph unicode="&#xd2;" horiz-adv-x="1168" d="M92 746q0 379 121.5 574.5t369.5 195.5q135 0 228.5 -54t152 -154.5t86 -243t27.5 -318.5q0 -380 -122 -576t-372 -196q-132 0 -225.5 54.5t-153 154.5t-86 243t-26.5 320zM260 746q0 -126 18 -239t56 -198t100 -136t149 -51q161 0 243.5 153t82.5 471q0 123 -17.5 236 t-56 199.5t-100.5 137.5t-152 51q-158 0 -240.5 -153.5t-82.5 -470.5zM301 1809v44h211l198 -251h-139z" />
<glyph unicode="&#xd3;" horiz-adv-x="1168" d="M92 746q0 379 121.5 574.5t369.5 195.5q135 0 228.5 -54t152 -154.5t86 -243t27.5 -318.5q0 -380 -122 -576t-372 -196q-132 0 -225.5 54.5t-153 154.5t-86 243t-26.5 320zM260 746q0 -126 18 -239t56 -198t100 -136t149 -51q161 0 243.5 153t82.5 471q0 123 -17.5 236 t-56 199.5t-100.5 137.5t-152 51q-158 0 -240.5 -153.5t-82.5 -470.5zM516 1602l198 251h211v-44l-279 -207h-130z" />
<glyph unicode="&#xd4;" horiz-adv-x="1168" d="M92 746q0 379 121.5 574.5t369.5 195.5q135 0 228.5 -54t152 -154.5t86 -243t27.5 -318.5q0 -380 -122 -576t-372 -196q-132 0 -225.5 54.5t-153 154.5t-86 243t-26.5 320zM260 746q0 -126 18 -239t56 -198t100 -136t149 -51q161 0 243.5 153t82.5 471q0 123 -17.5 236 t-56 199.5t-100.5 137.5t-152 51q-158 0 -240.5 -153.5t-82.5 -470.5zM305 1591v47l228 215h106l217 -217v-45h-140l-100 104l-32 75l-33 -73l-110 -106h-136z" />
<glyph unicode="&#xd5;" horiz-adv-x="1168" d="M92 746q0 379 121.5 574.5t369.5 195.5q135 0 228.5 -54t152 -154.5t86 -243t27.5 -318.5q0 -380 -122 -576t-372 -196q-132 0 -225.5 54.5t-153 154.5t-86 243t-26.5 320zM260 746q0 -126 18 -239t56 -198t100 -136t149 -51q161 0 243.5 153t82.5 471q0 123 -17.5 236 t-56 199.5t-100.5 137.5t-152 51q-158 0 -240.5 -153.5t-82.5 -470.5zM296 1661q59 73 109 99.5t95 26.5q34 0 65 -10.5t60 -22.5t55.5 -22.5t54.5 -10.5q24 0 45.5 8.5t45.5 34.5l55 -79q-51 -59 -95.5 -80.5t-82.5 -21.5q-33 0 -62.5 10.5t-58 22.5t-56.5 22t-57 10 q-31 0 -59.5 -12.5t-62.5 -48.5z" />
<glyph unicode="&#xd6;" horiz-adv-x="1168" d="M92 746q0 379 121.5 574.5t369.5 195.5q135 0 228.5 -54t152 -154.5t86 -243t27.5 -318.5q0 -380 -122 -576t-372 -196q-132 0 -225.5 54.5t-153 154.5t-86 243t-26.5 320zM260 746q0 -126 18 -239t56 -198t100 -136t149 -51q161 0 243.5 153t82.5 471q0 123 -17.5 236 t-56 199.5t-100.5 137.5t-152 51q-158 0 -240.5 -153.5t-82.5 -470.5zM317 1691q0 45 26.5 72.5t73.5 27.5q44 0 71 -27.5t27 -72.5t-27 -71.5t-71 -26.5q-47 0 -73.5 26.5t-26.5 71.5zM653 1691q0 45 27 72.5t72 27.5q46 0 72.5 -27.5t26.5 -72.5t-26.5 -71.5t-72.5 -26.5 q-45 0 -72 26.5t-27 71.5z" />
<glyph unicode="&#xd7;" horiz-adv-x="882" d="M113 443l236 279l-234 272l107 99l221 -260l224 260l104 -99l-232 -272l232 -277l-104 -96l-224 260l-224 -262z" />
<glyph unicode="&#xd8;" horiz-adv-x="1168" d="M92 746q0 379 121.5 574.5t369.5 195.5q96 0 172 -28.5t131 -81.5l64 112l102 -57l-87 -156q59 -102 85.5 -242.5t26.5 -316.5q0 -380 -122 -576t-372 -196q-185 0 -298 107l-57 -107l-104 60l81 147q-59 102 -86 244t-27 321zM260 746q0 -104 11.5 -199.5t37.5 -176.5 l490 878q-39 57 -92 89.5t-124 32.5q-158 0 -240.5 -153.5t-82.5 -470.5zM372 236q39 -55 91.5 -84.5t119.5 -29.5q161 0 243.5 153t82.5 471q0 102 -11.5 195.5t-37.5 172.5z" />
<glyph unicode="&#xd9;" horiz-adv-x="1109" d="M136 458v1033h160v-950q0 -116 15 -194.5t49 -127t85 -70t126 -21.5q140 0 194.5 97.5t54.5 315.5v950h153v-999q0 -270 -105.5 -390.5t-298.5 -120.5q-226 0 -329.5 117t-103.5 360zM286 1809v44h211l198 -251h-139z" />
<glyph unicode="&#xda;" horiz-adv-x="1109" d="M136 458v1033h160v-950q0 -116 15 -194.5t49 -127t85 -70t126 -21.5q140 0 194.5 97.5t54.5 315.5v950h153v-999q0 -270 -105.5 -390.5t-298.5 -120.5q-226 0 -329.5 117t-103.5 360zM465 1602l198 251h211v-44l-279 -207h-130z" />
<glyph unicode="&#xdb;" horiz-adv-x="1109" d="M136 458v1033h160v-950q0 -116 15 -194.5t49 -127t85 -70t126 -21.5q140 0 194.5 97.5t54.5 315.5v950h153v-999q0 -270 -105.5 -390.5t-298.5 -120.5q-226 0 -329.5 117t-103.5 360zM284 1591v47l228 215h106l217 -217v-45h-140l-100 104l-32 75l-33 -73l-110 -106h-136 z" />
<glyph unicode="&#xdc;" horiz-adv-x="1109" d="M136 458v1033h160v-950q0 -116 15 -194.5t49 -127t85 -70t126 -21.5q140 0 194.5 97.5t54.5 315.5v950h153v-999q0 -270 -105.5 -390.5t-298.5 -120.5q-226 0 -329.5 117t-103.5 360zM288 1691q0 45 26.5 72.5t73.5 27.5q44 0 71 -27.5t27 -72.5t-27 -71.5t-71 -26.5 q-47 0 -73.5 26.5t-26.5 71.5zM624 1691q0 45 27 72.5t72 27.5q46 0 72.5 -27.5t26.5 -72.5t-26.5 -71.5t-72.5 -26.5q-45 0 -72 26.5t-27 71.5z" />
<glyph unicode="&#xdd;" horiz-adv-x="968" d="M10 1491h188l269 -650l27 -130h4l28 135l260 645h173l-392 -897v-594h-160v592zM403 1602l198 251h211v-44l-279 -207h-130z" />
<glyph unicode="&#xde;" horiz-adv-x="962" d="M138 0v1491h160v-166q66 6 137 6q85 0 167.5 -20t150 -71t109 -140.5t41.5 -227.5q0 -135 -39 -229t-104 -151t-149.5 -83.5t-173.5 -26.5h-28t-40.5 1t-41.5 3t-29 4v-390h-160zM298 537q9 -5 27 -6t37.5 -3t37 -2h26.5q60 0 115 15t97.5 54t69.5 106.5t27 172.5 q0 87 -25 146.5t-64 96.5t-92.5 53.5t-110.5 16.5q-43 0 -82.5 -2.5t-62.5 -9.5v-638z" />
<glyph unicode="&#xdf;" horiz-adv-x="1038" d="M34 927v138h130v53q0 211 88.5 298.5t239.5 87.5q71 0 131 -19.5t106 -57t72 -91.5t26 -124q0 -71 -34.5 -121t-74 -90t-73 -80.5t-33.5 -91.5q0 -49 26.5 -83.5t66 -64t86 -60.5t86 -74t66 -103t26.5 -150q0 -59 -21 -116.5t-61.5 -102.5t-100.5 -73t-138 -28 q-79 0 -129 13t-97 43l42 130q45 -26 78 -38t92 -12q73 0 127 49.5t54 130.5q0 66 -26.5 109.5t-67 76.5t-86 62t-86 66t-67 88.5t-26.5 130.5q0 70 34 118.5t74.5 90t74.5 82t34 91.5q0 37 -16 66.5t-41.5 50t-56.5 32.5t-63 12q-47 0 -80.5 -14.5t-55 -48t-32.5 -92.5 t-11 -148v-1063h-153v927h-130z" />
<glyph unicode="&#xe0;" horiz-adv-x="851" d="M61 285q0 91 31.5 153t87.5 100.5t134 54.5t174 16h42t45 -2q6 66 6 117q0 122 -36 170.5t-132 48.5q-59 0 -129.5 -18t-117.5 -45l-51 122q62 38 150.5 59t185.5 21q90 0 144.5 -26.5t85 -72.5t40 -104.5t9.5 -122.5q0 -128 -5 -249t-5 -230q0 -81 5 -150.5t21 -130.5 h-118l-36 126h-9q-32 -55 -93.5 -96t-166.5 -41q-115 0 -188.5 80t-73.5 220zM222 303q0 -86 41.5 -132.5t106.5 -46.5q90 0 139 42.5t68 93.5v226q-21 2 -42 3t-43 1q-51 0 -100 -8.5t-87.5 -29.5t-60.5 -57.5t-22 -91.5zM232 1489v45h177l110 -318h-87z" />
<glyph unicode="&#xe1;" horiz-adv-x="851" d="M61 285q0 91 31.5 153t87.5 100.5t134 54.5t174 16h42t45 -2q6 66 6 117q0 122 -36 170.5t-132 48.5q-59 0 -129.5 -18t-117.5 -45l-51 122q62 38 150.5 59t185.5 21q90 0 144.5 -26.5t85 -72.5t40 -104.5t9.5 -122.5q0 -128 -5 -249t-5 -230q0 -81 5 -150.5t21 -130.5 h-118l-36 126h-9q-32 -55 -93.5 -96t-166.5 -41q-115 0 -188.5 80t-73.5 220zM222 303q0 -86 41.5 -132.5t106.5 -46.5q90 0 139 42.5t68 93.5v226q-21 2 -42 3t-43 1q-51 0 -100 -8.5t-87.5 -29.5t-60.5 -57.5t-22 -91.5zM313 1216l100 318h166v-45l-175 -273h-91z" />
<glyph unicode="&#xe2;" horiz-adv-x="851" d="M61 285q0 91 31.5 153t87.5 100.5t134 54.5t174 16h42t45 -2q6 66 6 117q0 122 -36 170.5t-132 48.5q-59 0 -129.5 -18t-117.5 -45l-51 122q62 38 150.5 59t185.5 21q90 0 144.5 -26.5t85 -72.5t40 -104.5t9.5 -122.5q0 -128 -5 -249t-5 -230q0 -81 5 -150.5t21 -130.5 h-118l-36 126h-9q-32 -55 -93.5 -96t-166.5 -41q-115 0 -188.5 80t-73.5 220zM194 1171l211 388h74l190 -388h-134l-69 141l-34 123l-36 -123l-76 -141h-126zM222 303q0 -86 41.5 -132.5t106.5 -46.5q90 0 139 42.5t68 93.5v226q-21 2 -42 3t-43 1q-51 0 -100 -8.5 t-87.5 -29.5t-60.5 -57.5t-22 -91.5z" />
<glyph unicode="&#xe3;" horiz-adv-x="851" d="M61 285q0 91 31.5 153t87.5 100.5t134 54.5t174 16h42t45 -2q6 66 6 117q0 122 -36 170.5t-132 48.5q-59 0 -129.5 -18t-117.5 -45l-51 122q62 38 150.5 59t185.5 21q90 0 144.5 -26.5t85 -72.5t40 -104.5t9.5 -122.5q0 -128 -5 -249t-5 -230q0 -81 5 -150.5t21 -130.5 h-118l-36 126h-9q-32 -55 -93.5 -96t-166.5 -41q-115 0 -188.5 80t-73.5 220zM171 1390q57 73 102 99.5t81 26.5q30 0 55.5 -12.5t50 -26.5t47 -27t48.5 -13q18 0 38.5 10t43.5 35l49 -80q-51 -61 -90 -85t-74 -24q-30 0 -55.5 12t-50 26.5t-47.5 26.5t-49 12q-24 0 -47 -12 t-51 -41zM222 303q0 -86 41.5 -132.5t106.5 -46.5q90 0 139 42.5t68 93.5v226q-21 2 -42 3t-43 1q-51 0 -100 -8.5t-87.5 -29.5t-60.5 -57.5t-22 -91.5z" />
<glyph unicode="&#xe4;" horiz-adv-x="851" d="M61 285q0 91 31.5 153t87.5 100.5t134 54.5t174 16h42t45 -2q6 66 6 117q0 122 -36 170.5t-132 48.5q-59 0 -129.5 -18t-117.5 -45l-51 122q62 38 150.5 59t185.5 21q90 0 144.5 -26.5t85 -72.5t40 -104.5t9.5 -122.5q0 -128 -5 -249t-5 -230q0 -81 5 -150.5t21 -130.5 h-118l-36 126h-9q-32 -55 -93.5 -96t-166.5 -41q-115 0 -188.5 80t-73.5 220zM166 1390q0 49 24.5 77.5t66.5 28.5q43 0 67.5 -28.5t24.5 -77.5q0 -44 -24.5 -71.5t-67.5 -27.5q-42 0 -66.5 27.5t-24.5 71.5zM222 303q0 -86 41.5 -132.5t106.5 -46.5q90 0 139 42.5t68 93.5 v226q-21 2 -42 3t-43 1q-51 0 -100 -8.5t-87.5 -29.5t-60.5 -57.5t-22 -91.5zM505 1390q0 49 24.5 77.5t66.5 28.5q43 0 67.5 -28.5t24.5 -77.5q0 -44 -24.5 -71.5t-67.5 -27.5q-42 0 -66.5 27.5t-24.5 71.5z" />
<glyph unicode="&#xe5;" horiz-adv-x="851" d="M61 285q0 91 31.5 153t87.5 100.5t134 54.5t174 16h42t45 -2q6 66 6 117q0 122 -36 170.5t-132 48.5q-59 0 -129.5 -18t-117.5 -45l-51 122q62 38 150.5 59t185.5 21q90 0 144.5 -26.5t85 -72.5t40 -104.5t9.5 -122.5q0 -128 -5 -249t-5 -230q0 -81 5 -150.5t21 -130.5 h-118l-36 126h-9q-32 -55 -93.5 -96t-166.5 -41q-115 0 -188.5 80t-73.5 220zM222 303q0 -86 41.5 -132.5t106.5 -46.5q90 0 139 42.5t68 93.5v226q-21 2 -42 3t-43 1q-51 0 -100 -8.5t-87.5 -29.5t-60.5 -57.5t-22 -91.5zM252 1370q0 89 47 139t128 50q77 0 126.5 -44.5 t49.5 -144.5q0 -86 -47.5 -137t-128.5 -51t-128 48t-47 140zM354 1370q0 -49 21 -73.5t52 -24.5q34 0 53.5 23.5t19.5 74.5t-22 75.5t-51 24.5q-31 0 -52 -23.5t-21 -76.5z" />
<glyph unicode="&#xe6;" horiz-adv-x="1366" d="M61 290q0 94 31.5 156.5t86.5 99.5t132 53.5t171 16.5q23 0 46 -1t47 -3q6 65 6 116q0 122 -36 169.5t-132 47.5q-59 0 -131.5 -21t-121.5 -55l-47 119q66 49 154.5 71.5t183.5 22.5q179 0 232 -137q43 77 119 111.5t150 34.5q59 0 117.5 -16t106 -62t76 -128t28.5 -212 q0 -37 -3 -77t-7 -84h-540q2 -196 60 -297.5t202 -101.5q59 0 117 21.5t88 46.5l55 -112q-53 -43 -129.5 -69t-170.5 -26q-106 0 -189.5 46t-123.5 136h-13q-43 -75 -116 -124t-182 -49q-120 0 -193.5 83t-73.5 224zM222 307q0 -75 40.5 -130t105.5 -55q45 0 80.5 13.5 t61 35.5t42.5 49.5t25 54.5v215q-21 2 -42 3t-43 1q-51 0 -100 -8.5t-87.5 -29.5t-60.5 -57.5t-22 -91.5zM730 636h400q5 161 -43 238.5t-135 77.5q-96 0 -153 -76.5t-69 -239.5z" />
<glyph unicode="&#xe7;" horiz-adv-x="758" d="M79 532q0 273 96.5 416t277.5 143q84 0 143.5 -15t102.5 -39l-43 -132q-81 47 -185 47q-115 0 -174 -101t-59 -319q0 -87 13 -162.5t42.5 -132t76.5 -88t118 -31.5q55 0 103 17.5t78 43.5l44 -126q-42 -32 -93 -50t-106 -24l-30 -71q138 -32 138 -160q0 -83 -61 -137 t-163 -54q-42 0 -79 8l16 83q49 -4 77.5 2.5t43.5 19.5t19 29t4 31q0 59 -147 79l75 167q-90 8 -153 52.5t-101 115.5t-56 170t-18 218z" />
<glyph unicode="&#xe8;" horiz-adv-x="878" d="M79 532q0 273 100 416t283 143q59 0 118 -15t106 -60t75.5 -126t28.5 -211q0 -36 -3 -77t-7 -86h-542q0 -92 15 -166.5t47 -126.5t82.5 -81t123.5 -29q58 0 114.5 21.5t86.5 50.5l55 -112q-51 -47 -130 -73t-165 -26q-100 0 -174 39.5t-121.5 113.5t-70 176t-22.5 229z M240 643h403q4 160 -45 234.5t-134 74.5q-98 0 -155 -74.5t-69 -234.5zM268 1489v45h177l110 -318h-87z" />
<glyph unicode="&#xe9;" horiz-adv-x="878" d="M79 532q0 273 100 416t283 143q59 0 118 -15t106 -60t75.5 -126t28.5 -211q0 -36 -3 -77t-7 -86h-542q0 -92 15 -166.5t47 -126.5t82.5 -81t123.5 -29q58 0 114.5 21.5t86.5 50.5l55 -112q-51 -47 -130 -73t-165 -26q-100 0 -174 39.5t-121.5 113.5t-70 176t-22.5 229z M240 643h403q4 160 -45 234.5t-134 74.5q-98 0 -155 -74.5t-69 -234.5zM394 1216l100 318h166v-45l-175 -273h-91z" />
<glyph unicode="&#xea;" horiz-adv-x="878" d="M79 532q0 273 100 416t283 143q59 0 118 -15t106 -60t75.5 -126t28.5 -211q0 -36 -3 -77t-7 -86h-542q0 -92 15 -166.5t47 -126.5t82.5 -81t123.5 -29q58 0 114.5 21.5t86.5 50.5l55 -112q-51 -47 -130 -73t-165 -26q-100 0 -174 39.5t-121.5 113.5t-70 176t-22.5 229z M209 1171l211 388h74l190 -388h-134l-69 141l-34 123l-36 -123l-76 -141h-126zM240 643h403q4 160 -45 234.5t-134 74.5q-98 0 -155 -74.5t-69 -234.5z" />
<glyph unicode="&#xeb;" horiz-adv-x="878" d="M79 532q0 273 100 416t283 143q59 0 118 -15t106 -60t75.5 -126t28.5 -211q0 -36 -3 -77t-7 -86h-542q0 -92 15 -166.5t47 -126.5t82.5 -81t123.5 -29q58 0 114.5 21.5t86.5 50.5l55 -112q-51 -47 -130 -73t-165 -26q-100 0 -174 39.5t-121.5 113.5t-70 176t-22.5 229z M199 1390q0 49 24.5 77.5t66.5 28.5q43 0 67.5 -28.5t24.5 -77.5q0 -44 -24.5 -71.5t-67.5 -27.5q-42 0 -66.5 27.5t-24.5 71.5zM240 643h403q4 160 -45 234.5t-134 74.5q-98 0 -155 -74.5t-69 -234.5zM538 1390q0 49 24.5 77.5t66.5 28.5q43 0 67.5 -28.5t24.5 -77.5 q0 -44 -24.5 -71.5t-67.5 -27.5q-42 0 -66.5 27.5t-24.5 71.5z" />
<glyph unicode="&#xec;" horiz-adv-x="461" d="M10 1489v45h177l110 -318h-87zM153 0v1065h154v-1065h-154z" />
<glyph unicode="&#xed;" horiz-adv-x="461" d="M153 0v1065h154v-1065h-154zM162 1216l100 318h166v-45l-175 -273h-91z" />
<glyph unicode="&#xee;" horiz-adv-x="461" d="M-10 1171l211 388h74l190 -388h-134l-69 141l-34 123l-36 -123l-76 -141h-126zM153 0v1065h154v-1065h-154z" />
<glyph unicode="&#xef;" horiz-adv-x="461" d="M-28 1390q0 49 24.5 77.5t66.5 28.5q43 0 67.5 -28.5t24.5 -77.5q0 -44 -24.5 -71.5t-67.5 -27.5q-42 0 -66.5 27.5t-24.5 71.5zM153 0v1065h154v-1065h-154zM311 1390q0 49 24.5 77.5t66.5 28.5q43 0 67.5 -28.5t24.5 -77.5q0 -44 -24.5 -71.5t-67.5 -27.5 q-42 0 -66.5 27.5t-24.5 71.5z" />
<glyph unicode="&#xf0;" d="M87 535q0 121 25.5 222t75.5 175t122 114t163 40q75 0 132 -25.5t88 -64.5q-24 81 -59.5 148.5t-80.5 121.5l-140 -93l-53 81l122 81q-69 55 -143 88l68 93q34 -16 81 -41.5t98 -70.5l127 85l51 -83l-106 -71q43 -49 81.5 -115t68 -152t47 -195t17.5 -243 q0 -183 -31.5 -307.5t-84.5 -202t-124 -112t-155 -34.5q-102 0 -176.5 40.5t-121.5 114.5t-69.5 177t-22.5 229zM245 535q0 -224 68.5 -322t174.5 -98q49 0 91.5 28t73 87.5t49 155.5t18.5 232q0 21 -1 52t-3.5 61.5t-5.5 58t-5 45.5q-30 55 -92 82.5t-123 27.5 q-64 0 -109.5 -29.5t-77 -83.5t-45 -130t-13.5 -167z" />
<glyph unicode="&#xf1;" horiz-adv-x="934" d="M126 0v1065h110l28 -113h6q41 57 110 98t165 41q69 0 121 -19.5t87 -65t53.5 -122.5t18.5 -193v-691h-154v650q0 160 -37.5 231t-133.5 71q-85 0 -140 -51t-81 -126v-775h-153zM213 1390q57 73 102 99.5t81 26.5q30 0 55.5 -12.5t50 -26.5t47 -27t48.5 -13q18 0 38.5 10 t43.5 35l49 -80q-51 -61 -90 -85t-74 -24q-30 0 -55.5 12t-50 26.5t-47.5 26.5t-49 12q-24 0 -47 -12t-51 -41z" />
<glyph unicode="&#xf2;" horiz-adv-x="919" d="M79 532q0 288 99 423.5t282 135.5q195 0 288 -139t93 -420q0 -290 -100 -424t-281 -134q-196 0 -288.5 139t-92.5 419zM238 532q0 -93 12 -170t38.5 -132t69 -86t102.5 -31q110 0 165.5 99t55.5 320q0 92 -11.5 170t-38 133t-69 86t-102.5 31q-108 0 -165 -100t-57 -320z M254 1489v45h177l110 -318h-87z" />
<glyph unicode="&#xf3;" horiz-adv-x="919" d="M79 532q0 288 99 423.5t282 135.5q195 0 288 -139t93 -420q0 -290 -100 -424t-281 -134q-196 0 -288.5 139t-92.5 419zM238 532q0 -93 12 -170t38.5 -132t69 -86t102.5 -31q110 0 165.5 99t55.5 320q0 92 -11.5 170t-38 133t-69 86t-102.5 31q-108 0 -165 -100t-57 -320z M384 1216l100 318h166v-45l-175 -273h-91z" />
<glyph unicode="&#xf4;" horiz-adv-x="919" d="M79 532q0 288 99 423.5t282 135.5q195 0 288 -139t93 -420q0 -290 -100 -424t-281 -134q-196 0 -288.5 139t-92.5 419zM228 1171l211 388h74l190 -388h-134l-69 141l-34 123l-36 -123l-76 -141h-126zM238 532q0 -93 12 -170t38.5 -132t69 -86t102.5 -31q110 0 165.5 99 t55.5 320q0 92 -11.5 170t-38 133t-69 86t-102.5 31q-108 0 -165 -100t-57 -320z" />
<glyph unicode="&#xf5;" horiz-adv-x="919" d="M79 532q0 288 99 423.5t282 135.5q195 0 288 -139t93 -420q0 -290 -100 -424t-281 -134q-196 0 -288.5 139t-92.5 419zM205 1390q57 73 102 99.5t81 26.5q30 0 55.5 -12.5t50 -26.5t47 -27t48.5 -13q18 0 38.5 10t43.5 35l49 -80q-51 -61 -90 -85t-74 -24q-30 0 -55.5 12 t-50 26.5t-47.5 26.5t-49 12q-24 0 -47 -12t-51 -41zM238 532q0 -93 12 -170t38.5 -132t69 -86t102.5 -31q110 0 165.5 99t55.5 320q0 92 -11.5 170t-38 133t-69 86t-102.5 31q-108 0 -165 -100t-57 -320z" />
<glyph unicode="&#xf6;" horiz-adv-x="919" d="M79 532q0 288 99 423.5t282 135.5q195 0 288 -139t93 -420q0 -290 -100 -424t-281 -134q-196 0 -288.5 139t-92.5 419zM201 1390q0 49 24.5 77.5t66.5 28.5q43 0 67.5 -28.5t24.5 -77.5q0 -44 -24.5 -71.5t-67.5 -27.5q-42 0 -66.5 27.5t-24.5 71.5zM238 532 q0 -93 12 -170t38.5 -132t69 -86t102.5 -31q110 0 165.5 99t55.5 320q0 92 -11.5 170t-38 133t-69 86t-102.5 31q-108 0 -165 -100t-57 -320zM540 1390q0 49 24.5 77.5t66.5 28.5q43 0 67.5 -28.5t24.5 -77.5q0 -44 -24.5 -71.5t-67.5 -27.5q-42 0 -66.5 27.5t-24.5 71.5z " />
<glyph unicode="&#xf7;" horiz-adv-x="882" d="M75 652v143h732v-143h-732zM335 364q0 59 28.5 89.5t77.5 30.5t77.5 -30t28.5 -90q0 -61 -28.5 -91.5t-77.5 -30.5t-77.5 30.5t-28.5 91.5zM335 1082q0 59 28.5 89t77.5 30t77.5 -29.5t28.5 -89.5q0 -62 -28.5 -91.5t-77.5 -29.5t-77.5 29.5t-28.5 91.5z" />
<glyph unicode="&#xf8;" horiz-adv-x="927" d="M85 532q0 279 99 419t283 140q124 0 208 -62l41 68l104 -64l-58 -102q43 -71 64.5 -171t21.5 -228q0 -282 -99 -420t-282 -138q-132 0 -219 69l-45 -73l-105 68l64 109q-77 140 -77 385zM245 532q0 -63 4.5 -120.5t16.5 -106.5l335 585q-26 30 -59 46t-75 16 q-108 0 -165 -100t-57 -320zM321 185q55 -73 146 -72q110 0 165.5 100t55.5 319q0 69 -5.5 129.5t-20.5 109.5z" />
<glyph unicode="&#xf9;" horiz-adv-x="923" d="M110 374v691h154v-652q0 -162 33 -231t120 -69q45 0 80 18t63 48t49 68t34 79v739h154v-762q0 -77 5 -159.5t15 -143.5h-108l-38 149h-6q-37 -71 -105 -123t-170 -52q-69 0 -120 17t-87 62t-54.5 123t-18.5 198zM243 1489v45h177l110 -318h-87z" />
<glyph unicode="&#xfa;" horiz-adv-x="923" d="M110 374v691h154v-652q0 -162 33 -231t120 -69q45 0 80 18t63 48t49 68t34 79v739h154v-762q0 -77 5 -159.5t15 -143.5h-108l-38 149h-6q-37 -71 -105 -123t-170 -52q-69 0 -120 17t-87 62t-54.5 123t-18.5 198zM382 1216l100 318h166v-45l-175 -273h-91z" />
<glyph unicode="&#xfb;" horiz-adv-x="923" d="M110 374v691h154v-652q0 -162 33 -231t120 -69q45 0 80 18t63 48t49 68t34 79v739h154v-762q0 -77 5 -159.5t15 -143.5h-108l-38 149h-6q-37 -71 -105 -123t-170 -52q-69 0 -120 17t-87 62t-54.5 123t-18.5 198zM222 1171l211 388h74l190 -388h-134l-69 141l-34 123 l-36 -123l-76 -141h-126z" />
<glyph unicode="&#xfc;" horiz-adv-x="923" d="M110 374v691h154v-652q0 -162 33 -231t120 -69q45 0 80 18t63 48t49 68t34 79v739h154v-762q0 -77 5 -159.5t15 -143.5h-108l-38 149h-6q-37 -71 -105 -123t-170 -52q-69 0 -120 17t-87 62t-54.5 123t-18.5 198zM203 1390q0 49 24.5 77.5t66.5 28.5q43 0 67.5 -28.5 t24.5 -77.5q0 -44 -24.5 -71.5t-67.5 -27.5q-42 0 -66.5 27.5t-24.5 71.5zM542 1390q0 49 24.5 77.5t66.5 28.5q43 0 67.5 -28.5t24.5 -77.5q0 -44 -24.5 -71.5t-67.5 -27.5q-42 0 -66.5 27.5t-24.5 71.5z" />
<glyph unicode="&#xfd;" horiz-adv-x="800" d="M15 1065h174l201 -689l45 -205h10l32 205l162 689h156l-254 -957q-30 -115 -60 -215t-64.5 -173.5t-78.5 -115t-104 -41.5q-59 0 -104 20l26 145q30 -11 59.5 -4.5t56 36t49 88t39.5 152.5zM366 1216l100 318h166v-45l-175 -273h-91z" />
<glyph unicode="&#xfe;" horiz-adv-x="925" d="M126 -426v1917h153v-511h6q34 51 91 81t138 30q168 0 251 -126t83 -412q0 -134 -28 -241t-78.5 -182t-123.5 -115.5t-162 -40.5q-62 0 -101.5 9t-75.5 27v-436h-153zM279 166q30 -26 67.5 -39.5t98.5 -13.5q113 0 178 115t65 328q0 90 -11.5 162t-36 124t-65 81t-98.5 29 q-75 0 -125.5 -48t-72.5 -133v-605z" />
<glyph unicode="&#xff;" horiz-adv-x="800" d="M15 1065h174l201 -689l45 -205h10l32 205l162 689h156l-254 -957q-30 -115 -60 -215t-64.5 -173.5t-78.5 -115t-104 -41.5q-59 0 -104 20l26 145q30 -11 59.5 -4.5t56 36t49 88t39.5 152.5zM140 1390q0 49 24.5 77.5t66.5 28.5q43 0 67.5 -28.5t24.5 -77.5 q0 -44 -24.5 -71.5t-67.5 -27.5q-42 0 -66.5 27.5t-24.5 71.5zM479 1390q0 49 24.5 77.5t66.5 28.5q43 0 67.5 -28.5t24.5 -77.5q0 -44 -24.5 -71.5t-67.5 -27.5q-42 0 -66.5 27.5t-24.5 71.5z" />
<glyph unicode="&#x152;" horiz-adv-x="1592" d="M92 746q0 376 124.5 573t364.5 197q77 0 129 -7t105 -18h663v-147h-502v-505h459v-146h-459v-546h513v-147h-674q-42 -10 -101.5 -18t-132.5 -8q-128 0 -220.5 54.5t-152 155.5t-88 243t-28.5 319zM260 746q0 -126 18 -239t58 -198t104 -136t156 -51q49 0 100.5 4 t118.5 30v1171q-46 24 -105.5 33.5t-123.5 9.5q-156 0 -241 -153.5t-85 -470.5z" />
<glyph unicode="&#x153;" horiz-adv-x="1473" d="M79 532q0 273 99 416t282 143q108 0 182 -48.5t116 -135.5q43 81 118.5 132.5t180.5 51.5q59 0 117.5 -16t105.5 -61t75.5 -126t28.5 -211q0 -36 -3 -76t-7 -85h-545q2 -185 65 -295.5t207 -110.5q58 0 117.5 24t88.5 53l56 -112q-51 -49 -133 -75t-171 -26 q-106 0 -183 51.5t-120 134.5q-91 -185 -298 -186q-194 0 -286.5 145t-92.5 413zM238 532q0 -83 12 -158.5t38.5 -133t69 -92.5t102.5 -35q219 0 219 419q0 84 -11.5 159t-37 134t-68 93t-102.5 34q-222 0 -222 -420zM833 641h405q4 160 -45 237t-136 77q-96 0 -155 -77 t-69 -237z" />
<glyph unicode="&#x178;" horiz-adv-x="968" d="M10 1491h188l269 -650l27 -130h4l28 135l260 645h173l-392 -897v-594h-160v592zM224 1691q0 45 26.5 72.5t73.5 27.5q44 0 71 -27.5t27 -72.5t-27 -71.5t-71 -26.5q-47 0 -73.5 26.5t-26.5 71.5zM560 1691q0 45 27 72.5t72 27.5q46 0 72.5 -27.5t26.5 -72.5t-26.5 -71.5 t-72.5 -26.5q-45 0 -72 26.5t-27 71.5z" />
<glyph unicode="&#x2c6;" horiz-adv-x="730" d="M128 1171l211 388h74l190 -388h-134l-69 141l-34 123l-36 -123l-76 -141h-126z" />
<glyph unicode="&#x2dc;" horiz-adv-x="770" d="M128 1390q57 73 102 99.5t81 26.5q30 0 55.5 -12.5t50 -26.5t47 -27t48.5 -13q18 0 38.5 10t43.5 35l49 -80q-51 -61 -90 -85t-74 -24q-30 0 -55.5 12t-50 26.5t-47.5 26.5t-49 12q-24 0 -47 -12t-51 -41z" />
<glyph unicode="&#x2000;" horiz-adv-x="926" />
<glyph unicode="&#x2001;" horiz-adv-x="1853" />
<glyph unicode="&#x2002;" horiz-adv-x="926" />
<glyph unicode="&#x2003;" horiz-adv-x="1853" />
<glyph unicode="&#x2004;" horiz-adv-x="617" />
<glyph unicode="&#x2005;" horiz-adv-x="463" />
<glyph unicode="&#x2006;" horiz-adv-x="308" />
<glyph unicode="&#x2007;" horiz-adv-x="308" />
<glyph unicode="&#x2008;" horiz-adv-x="231" />
<glyph unicode="&#x2009;" horiz-adv-x="370" />
<glyph unicode="&#x200a;" horiz-adv-x="102" />
<glyph unicode="&#x2010;" horiz-adv-x="618" d="M100 535v146h420v-146h-420z" />
<glyph unicode="&#x2011;" horiz-adv-x="618" d="M100 535v146h420v-146h-420z" />
<glyph unicode="&#x2012;" horiz-adv-x="618" d="M100 535v146h420v-146h-420z" />
<glyph unicode="&#x2013;" horiz-adv-x="1128" d="M198 539v146h733v-146h-733z" />
<glyph unicode="&#x2014;" horiz-adv-x="1409" d="M203 539v146h1004v-146h-1004z" />
<glyph unicode="&#x2018;" horiz-adv-x="344" d="M66 1361q0 71 18 122t43.5 87t52.5 57t46 32l49 -70q-37 -26 -63.5 -68.5t-24.5 -99.5q41 6 65.5 -22.5t24.5 -77.5t-26.5 -78t-69.5 -29q-49 0 -82 36t-33 111z" />
<glyph unicode="&#x2019;" horiz-adv-x="344" d="M66 1404q0 49 28 76.5t70 27.5q51 0 83 -35.5t32 -106.5q0 -69 -17 -120t-41.5 -86.5t-52.5 -57.5t-46 -33l-49 65q36 24 62.5 67t24.5 100q-38 -6 -66 22t-28 81z" />
<glyph unicode="&#x201a;" horiz-adv-x="344" d="M66 107q0 49 28 76.5t70 27.5q51 0 83 -35.5t32 -106.5q0 -69 -17 -120t-41.5 -86.5t-52.5 -57.5t-46 -33l-49 65q36 24 62.5 67t24.5 100q-38 -6 -66 22t-28 81z" />
<glyph unicode="&#x201c;" horiz-adv-x="612" d="M66 1361q0 71 18 122t43.5 87t52.5 57t46 32l49 -70q-37 -26 -63.5 -68.5t-24.5 -99.5q41 6 65.5 -22.5t24.5 -77.5t-26.5 -78t-69.5 -29q-49 0 -82 36t-33 111zM334 1361q0 71 18 122t43.5 87t52.5 57t46 32l49 -70q-37 -26 -63.5 -68.5t-24.5 -99.5q41 6 65.5 -22.5 t24.5 -77.5t-26.5 -78t-69.5 -29q-49 0 -82 36t-33 111z" />
<glyph unicode="&#x201d;" horiz-adv-x="612" d="M66 1404q0 49 28 76.5t70 27.5q51 0 83 -35.5t32 -106.5q0 -69 -17 -120t-41.5 -86.5t-52.5 -57.5t-46 -33l-49 65q36 24 62.5 67t24.5 100q-38 -6 -66 22t-28 81zM334 1404q0 49 28 76.5t70 27.5q51 0 83 -35.5t32 -106.5q0 -69 -17 -120t-41.5 -86.5t-52.5 -57.5 t-46 -33l-49 65q36 24 62.5 67t24.5 100q-38 -6 -66 22t-28 81z" />
<glyph unicode="&#x201e;" horiz-adv-x="612" d="M66 107q0 49 28 76.5t70 27.5q51 0 83 -35.5t32 -106.5q0 -69 -17 -120t-41.5 -86.5t-52.5 -57.5t-46 -33l-49 65q36 24 62.5 67t24.5 100q-38 -6 -66 22t-28 81zM334 107q0 49 28 76.5t70 27.5q51 0 83 -35.5t32 -106.5q0 -69 -17 -120t-41.5 -86.5t-52.5 -57.5t-46 -33 l-49 65q36 24 62.5 67t24.5 100q-38 -6 -66 22t-28 81z" />
<glyph unicode="&#x2022;" horiz-adv-x="772" d="M145 662q0 135 67 216t176 81q106 0 174 -78t68 -219q0 -140 -68 -218t-174 -78q-108 0 -175.5 78t-67.5 218z" />
<glyph unicode="&#x2026;" horiz-adv-x="1398" d="M130 96q0 59 28.5 89t77.5 30t78 -29.5t29 -89.5q0 -62 -29 -92t-78 -30t-77.5 30t-28.5 92zM605 96q0 59 28.5 89t77.5 30t78 -29.5t29 -89.5q0 -62 -29 -92t-78 -30t-77.5 30t-28.5 92zM1082 96q0 59 28.5 89t77.5 30t78 -29.5t29 -89.5q0 -62 -29 -92t-78 -30 t-77.5 30t-28.5 92z" />
<glyph unicode="&#x202f;" horiz-adv-x="370" />
<glyph unicode="&#x2039;" horiz-adv-x="514" d="M63 551l276 490l106 -70l-175 -330l-81 -88l81 -76l186 -324l-107 -72z" />
<glyph unicode="&#x203a;" horiz-adv-x="514" d="M59 967l109 74l283 -470l-272 -490l-106 70l172 331l83 87l-83 77z" />
<glyph unicode="&#x205f;" horiz-adv-x="463" />
<glyph unicode="&#x20ac;" d="M26 547l33 132h92v67v41.5t2 43.5h-127l33 134h107q21 156 66 258t109 167t142 95.5t165 30.5t149.5 -11.5t111.5 -34.5l-42 -141q-40 19 -91.5 30t-123.5 11q-57 0 -108.5 -21.5t-94 -67t-74.5 -120.5t-49 -196h475l-32 -134h-456q-2 -17 -2 -43v-42v-34t2 -33h422 l-32 -132h-380q31 -224 120 -324.5t230 -100.5q134 0 217 59l37 -128q-51 -43 -128 -61t-156 -18q-196 0 -321.5 134t-159.5 439h-136z" />
<glyph unicode="&#x2122;" horiz-adv-x="1556" d="M73 1352v139h606v-139h-226v-628h-152v628h-228zM746 724v767h150l175 -355l47 -124l51 128l160 351h153v-767h-142v356l21 219h-9l-66 -181l-142 -298h-73l-144 296l-63 183h-8l28 -217v-358h-138z" />
<glyph unicode="&#xe000;" horiz-adv-x="1064" d="M0 0v1065h1065v-1065h-1065z" />
</font>
</defs>
</svg>
