<?xml version="1.0" standalone="no"?>
<!DOCTYPE svg PUBLIC "-//W3C//DTD SVG 1.1//EN" "http://www.w3.org/Graphics/SVG/1.1/DTD/svg11.dtd" >
<svg xmlns="http://www.w3.org/2000/svg">
<metadata></metadata>
<defs>
<font id="oswaldlight" horiz-adv-x="865" >
<font-face units-per-em="2048" ascent="1638" descent="-410" />
<missing-glyph horiz-adv-x="361" />
<glyph horiz-adv-x="2048" />
<glyph horiz-adv-x="2048" />
<glyph unicode="&#xd;" horiz-adv-x="2048" />
<glyph unicode=" "  horiz-adv-x="361" />
<glyph unicode="&#x09;" horiz-adv-x="361" />
<glyph unicode="&#xa0;" horiz-adv-x="361" />
<glyph unicode="!" horiz-adv-x="386" d="M104 1530h173l-54 -1185h-48zM123 0v159h164v-159h-164z" />
<glyph unicode="&#x22;" horiz-adv-x="617" d="M91 1526h149q-10 -63 -21.5 -132l-23.5 -141h-60zM378 1526h150q-11 -63 -22 -132t-24 -141h-59z" />
<glyph unicode="#" horiz-adv-x="907" d="M16 0l165 587h-138v112h169l59 212h-184v103h213l145 518h129l-145 -518h157l145 518h129l-145 -518h137v-103h-167l-59 -212h181v-112h-212l-165 -587h-128l164 587h-157l-165 -587h-128zM340 699h158l59 212h-157z" />
<glyph unicode="$" horiz-adv-x="843" d="M51 1098q0 143 96.5 229.5t249.5 91.5v136h78v-139q131 -16 217 -106t105 -237l-113 -34q-17 111 -87 190t-168 79q-247 0 -247 -192q0 -104 125 -208l252 -200q58 -48 95.5 -83.5t78 -84t60.5 -99.5t20 -105q0 -152 -93 -238t-245 -94v-127h-78v128q-97 11 -170.5 68 t-114 139t-56.5 184l119 35q14 -137 82.5 -226.5t187.5 -93.5q69 0 121 19.5t85 68.5t33 125q0 136 -209 299l-262 205q-162 131 -162 270z" />
<glyph unicode="%" horiz-adv-x="1118" d="M51 1056v209q0 288 201 288t201 -288v-209q0 -297 -201 -297t-201 297zM155 1059q0 -210 97 -210t97 210v203q0 201 -97 201t-97 -201v-203zM271 0l492 1532h110l-492 -1532h-110zM697 273v208q0 289 201 289t201 -289v-208q0 -297 -201 -297t-201 297zM801 276 q0 -210 97 -210t97 210v203q0 201 -97 201t-97 -201v-203z" />
<glyph unicode="&#x26;" horiz-adv-x="993" d="M61 265q0 122 66 258t181 228q-183 304 -183 468q0 149 85 241.5t228.5 92.5t224.5 -79.5t81 -209.5q0 -122 -75 -262t-226 -275l286 -439q133 177 133 382h113q0 -99 -49 -228.5t-134 -238.5q86 -94 182 -94v-121q-69 4 -139 39t-119 92q-152 -142 -330 -142 q-163 0 -244 80t-81 208zM185 279q0 -89 51 -142t157 -53q132 0 261 120l-293 449q-75 -69 -125.5 -175t-50.5 -199zM260 1214q0 -165 133 -389q102 97 162.5 215t60.5 220q0 85 -43 134.5t-131 49.5q-50 0 -87 -22.5t-56.5 -59t-29 -74t-9.5 -74.5z" />
<glyph unicode="'" horiz-adv-x="331" d="M91 1526h150q-12 -73 -23.5 -142t-21.5 -131h-60z" />
<glyph unicode="(" horiz-adv-x="476" d="M102 748v5.5v4v5v3.5v18q0 89 1 140t8 148t20.5 156.5t41.5 136t67 120t101 74.5t140 31v-117q-48 0 -86.5 -21.5t-64 -54t-43.5 -88.5t-27.5 -106t-15 -127t-6 -133t-0.5 -139v-33q0 -83 0.5 -126.5t3 -121.5t9 -122.5t17.5 -106.5t29 -97t43 -70t61 -50.5t80 -15.5 v-118q-61 0 -112 19t-88 47t-66.5 77.5t-47.5 93t-31 112t-20 115t-10 121.5t-3.5 113.5t-0.5 106.5z" />
<glyph unicode=")" horiz-adv-x="485" d="M16 -57v118q45 0 81 15.5t60.5 50.5t43 70t29 97t17.5 106.5t9.5 122.5t3 121.5t0.5 126.5v11v10v12q0 83 -1 139t-6.5 133t-14.5 127t-27.5 106t-43.5 88.5t-63.5 54t-87.5 21.5v117q78 0 140 -31t101 -74.5t67 -120t41.5 -136t20.5 -156.5t8 -148t1 -140v-4.5v-4v-5 v-4.5v-18q0 -68 -0.5 -106.5t-3.5 -113.5t-9.5 -121.5t-19.5 -115t-31.5 -112t-47.5 -93t-66 -77.5t-88.5 -47t-112.5 -19z" />
<glyph unicode="*" horiz-adv-x="676" d="M49 1167l32 79l224 -106l-16 269h106l-18 -268l226 107l32 -80l-235 -91l154 -223l-79 -43l-133 224l-133 -224l-78 46l154 220z" />
<glyph unicode="+" horiz-adv-x="577" d="M73 513v102h171v171h108v-171h170v-102h-170v-171h-108v171h-171z" />
<glyph unicode="," horiz-adv-x="346" d="M99 0v159h164v-20v-71.5t-1 -65t-4.5 -62.5t-9 -51.5t-14.5 -46.5t-21.5 -33.5t-30 -25.5t-40.5 -11l-24 49q29 11 49.5 34t29.5 51.5t12.5 51t3.5 42.5h-114z" />
<glyph unicode="-" horiz-adv-x="473" d="M104 399v102h279v-102h-279z" />
<glyph unicode="." horiz-adv-x="353" d="M102 0v159h164v-159h-164z" />
<glyph unicode="/" horiz-adv-x="579" d="M-26 0l491 1532h130l-493 -1532h-128z" />
<glyph unicode="0" horiz-adv-x="931" d="M104 444v642q0 81 11 148.5t38 127.5t68 101.5t103.5 65.5t143.5 24t144 -24t103.5 -65.5t67.5 -101.5t38 -127.5t11 -148.5v-642q0 -468 -364 -468t-364 468zM239 414q0 -329 229 -329t229 329v702q0 328 -229 328t-229 -328v-702z" />
<glyph unicode="1" horiz-adv-x="473" d="M36 1236v128q54 20 116 63t99 105h92v-1532h-136v1315q-38 -25 -88.5 -48.5t-82.5 -30.5z" />
<glyph unicode="2" horiz-adv-x="828" d="M56 0v114l411 620q36 55 58.5 91.5t52.5 94t45 111t15 101.5q0 144 -48.5 228t-154.5 84q-60 0 -105 -20t-70.5 -52.5t-40.5 -82t-20 -97t-5 -110.5h-135v21q9 450 374 450q170 0 255 -111.5t85 -308.5q0 -93 -52 -210.5t-120 -216.5l-386 -597h540v-109h-699z" />
<glyph unicode="3" horiz-adv-x="829" d="M65 1150v22q0 77 18.5 142.5t58.5 120.5t111 86.5t167 31.5q72 0 130 -21t96 -56.5t64 -85t37 -103.5t11 -116q0 -147 -58.5 -240.5t-150.5 -120.5q209 -84 209 -399q0 -435 -354 -435q-73 0 -131.5 21t-96.5 56t-63.5 84t-36 102t-10.5 113v23h126q2 -90 16.5 -148 t45 -89t68.5 -42t95 -11q51 0 87 14t64 49t41.5 99.5t13.5 161.5q0 75 -11 133.5t-36.5 105.5t-71 74t-109.5 33v115q128 5 178 72t50 230q0 149 -50.5 210.5t-155.5 61.5t-161.5 -69t-63.5 -225h-127z" />
<glyph unicode="4" horiz-adv-x="754" d="M24 453v93l353 987h208v-979h152v-101h-152v-453h-136v453h-425zM166 554h283v866z" />
<glyph unicode="5" horiz-adv-x="843" d="M109 383l136 9q0 -94 12 -155t38.5 -94.5t61.5 -45.5t89 -12q108 0 159 89t51 302q0 204 -47.5 288.5t-154.5 84.5q-58 0 -118 -31t-101 -94h-109v808h587l-13 -109h-438l-19 -563q42 44 105.5 71t132.5 27q83 0 144.5 -37t97 -105t52 -152t16.5 -187 q0 -108 -19.5 -196.5t-59 -158t-107.5 -108t-159 -38.5q-176 0 -256.5 103t-80.5 304z" />
<glyph unicode="6" horiz-adv-x="871" d="M101 436v682q0 435 346 435q88 0 154 -31t102.5 -86t54.5 -119.5t18 -139.5v-23h-126q-2 90 -16.5 148t-43 89t-64.5 42t-92 11q-50 0 -84 -14t-60.5 -49t-39.5 -99.5t-13 -160.5v-290q84 40 219 40q93 0 162.5 -33t110.5 -94.5t61 -140t20 -174.5q0 -99 -20.5 -179.5 t-63 -143t-113.5 -96.5t-166 -34q-181 0 -263.5 117.5t-82.5 342.5zM237 446q0 -88 8.5 -151.5t24.5 -104t42.5 -64t58 -32.5t76.5 -9q119 0 173.5 76.5t54.5 266.5q0 185 -52.5 260t-166.5 75q-63 0 -127.5 -11.5t-91.5 -29.5v-276z" />
<glyph unicode="7" horiz-adv-x="614" d="M1 1411v121h575v-68q-67 -343 -149.5 -740t-147.5 -724h-140l292 1411h-430z" />
<glyph unicode="8" horiz-adv-x="849" d="M70 411q0 315 209 399q-91 27 -150 120.5t-59 240.5q0 83 20 150.5t61 120t110.5 82t163 29.5t163 -29.5t110.5 -82t61 -120t20 -150.5q0 -147 -59 -240.5t-150 -120.5q209 -84 209 -399q0 -435 -354.5 -435t-354.5 435zM206 409q0 -97 13.5 -161.5t42.5 -99.5t67.5 -49 t95 -14t95 14t67.5 49t42.5 99.5t13.5 161.5q0 153 -49.5 242t-168.5 103q-120 -14 -169.5 -103t-49.5 -242zM206 1172q0 -160 48 -227.5t171 -74.5q122 7 170 74.5t48 227.5q0 150 -52.5 211t-166 61t-166 -61t-52.5 -211z" />
<glyph unicode="9" horiz-adv-x="881" d="M71 1100q0 99 20.5 179.5t63 143t113.5 96.5t166 34q181 0 263.5 -117.5t82.5 -342.5v-682q0 -435 -346 -435q-88 0 -154 31t-102.5 86t-54.5 119.5t-18 139.5v23h126q2 -90 16.5 -148t43.5 -89t65 -42t91 -11q50 0 84 14t61 49t39.5 99.5t12.5 161.5v289 q-84 -40 -219 -40q-93 0 -162.5 33t-110.5 94.5t-61 140t-20 174.5zM206 1101q0 -185 53 -260t166 -75q63 0 127.5 11.5t91.5 29.5v276q0 88 -8.5 151.5t-24.5 104.5t-42.5 64t-58 32t-76.5 9q-119 0 -173.5 -76.5t-54.5 -266.5z" />
<glyph unicode=":" horiz-adv-x="379" d="M111 245v159h165v-159h-165zM111 724v159h165v-159h-165z" />
<glyph unicode=";" horiz-adv-x="375" d="M111 228v159h164q0 -18 -1 -52q-1 -47 -1.5 -69t-2 -60.5t-5 -57t-9.5 -46t-14.5 -41.5t-20.5 -29t-29 -22t-38 -10l-23 49q52 20 73 74.5t21 104.5h-114zM111 724v159h164v-159h-164z" />
<glyph unicode="&#x3c;" horiz-adv-x="647" d="M68 440v191l506 354v-147l-424 -301q85 -62 208 -149.5t216 -155.5v-148q-379 265 -506 356z" />
<glyph unicode="=" horiz-adv-x="667" d="M113 227v102h449v-102h-449zM113 513v102h449v-102h-449z" />
<glyph unicode="&#x3e;" horiz-adv-x="647" d="M91 84v148l424 305q-93 66 -424 301v149q377 -267 506 -356v-191z" />
<glyph unicode="?" horiz-adv-x="772" d="M29 1049v130q0 88 31.5 161t82.5 119t115 70.5t133 24.5q66 0 127.5 -23.5t111 -69t79 -120t29.5 -167.5q0 -160 -88 -284.5t-264 -234.5v-253h-119v304q90 51 156.5 109t102.5 106t57 99t27 84.5t6 67.5q0 72 -19 126.5t-51 85.5t-71.5 46t-83.5 15q-105 0 -173 -70.5 t-68 -198.5l-1 -127h-120zM245 1v159h164v-159h-164z" />
<glyph unicode="@" horiz-adv-x="1276" d="M64 773q0 170 46.5 307t127 224t185 133.5t223.5 46.5q272 0 423 -180.5t151 -513.5q0 -83 -14 -151t-37.5 -112.5t-56 -74t-67 -42.5t-71.5 -13q-68 0 -126.5 39t-78.5 101q-11 -50 -41 -82t-67 -44.5t-82 -12.5q-49 0 -87 26.5t-59.5 65.5t-35 89.5t-18 90.5t-4.5 77 q0 193 58.5 292.5t147.5 99.5q84 0 161 -67v62h136v-499q0 -136 92 -136q115 0 115 285q0 139 -21.5 243.5t-58 170.5t-93 106.5t-119 56t-143.5 15.5q-31 0 -61 -3t-77 -17.5t-87.5 -38t-83.5 -69.5t-72.5 -107.5t-49.5 -157.5t-20 -214q0 -152 30 -267t76.5 -182 t114 -108.5t132.5 -55.5t142 -14q30 0 60.5 1.5t66 7t51 7.5t57 10t42.5 8l22 -105q-165 -35 -294 -35q-115 0 -209 23t-174.5 77t-135.5 138t-85.5 210t-30.5 289zM509 748q0 -130 25.5 -189.5t76.5 -59.5q47 0 75 19t56 55v425q-67 47 -117 47q-42 0 -68.5 -42.5t-37 -106 t-10.5 -148.5z" />
<glyph unicode="A" d="M42 0l302 1532h177l302 -1532h-137l-76 399h-354l-78 -399h-136zM272 489h321l-161 902z" />
<glyph unicode="B" horiz-adv-x="900" d="M130 0v1532h329q79 0 140.5 -22.5t100 -59t63 -88t33.5 -105t9 -114.5q0 -95 -44 -186t-121 -127q54 -22 94 -65t61.5 -96.5t31.5 -106.5t10 -105q0 -81 -8 -142t-30.5 -123t-60 -102t-101.5 -65t-151 -25h-356zM265 103h242q47 0 81.5 19.5t56 50.5t34.5 78t17.5 96 t4.5 110q0 54 -4.5 96.5t-17 84.5t-33.5 70t-56.5 45t-82.5 17h-242v-667zM265 874h217q50 0 85.5 22t55.5 60.5t28.5 84t8.5 99.5q0 288 -219 288h-176v-554z" />
<glyph unicode="C" horiz-adv-x="918" d="M101 444v642q0 82 11 148.5t38 127t70 102t109 65.5t153 24q360 0 360 -467v-62h-129v92q0 74 -11 131t-37 103t-72 70t-111 24q-58 0 -102 -16t-71 -44.5t-43.5 -71.5t-22.5 -89.5t-6 -106.5v-702q0 -76 10.5 -131.5t37 -102t76 -71t121.5 -24.5q65 0 111 24.5t72 70.5 t37 103t11 131v105h129v-75q0 -81 -10 -147.5t-35 -127.5t-65 -102.5t-103.5 -66t-146.5 -24.5q-89 0 -156 24.5t-109.5 66t-68.5 102.5t-36.5 127t-10.5 148z" />
<glyph unicode="D" horiz-adv-x="966" d="M130 0v1532h344q88 0 155.5 -23.5t111.5 -64t72 -99.5t40 -125t12 -145v-623q0 -452 -391 -452h-344zM265 109h209q256 0 256 313v683q0 318 -256 318h-209v-1314z" />
<glyph unicode="E" horiz-adv-x="707" d="M130 0v1532h534v-109h-399v-580h285v-103h-285v-631h399v-109h-534z" />
<glyph unicode="F" horiz-adv-x="655" d="M130 0v1532h538v-109h-403v-580h317v-103h-317v-740h-135z" />
<glyph unicode="G" horiz-adv-x="968" d="M101 428v650q0 475 404 475q64 0 116 -14t88 -38.5t63 -63t43 -79.5t26 -95.5t13.5 -106t3.5 -114.5v-10h-135v11v12q0 65 -1.5 98t-7 88t-19.5 84t-37 60.5t-62.5 45t-92.5 13.5q-75 0 -128.5 -25t-82.5 -70.5t-42 -98t-13 -115.5v-766q0 -58 10.5 -105t37 -89.5t79 -66 t128.5 -23.5q70 0 120 24.5t75 68t35 89.5t10 102v259h-187v103h323v-731h-60l-40 150q-30 -80 -107 -127t-171 -47q-61 0 -112 11t-88.5 29t-67.5 46t-49 55.5t-33.5 64t-21.5 66t-11 67t-5 60.5t-1 53z" />
<glyph unicode="H" horiz-adv-x="1002" d="M130 0v1532h135v-694h472v694h135v-1532h-135v744h-472v-744h-135z" />
<glyph unicode="I" horiz-adv-x="395" d="M129 0v1532h135v-1532h-135z" />
<glyph unicode="J" horiz-adv-x="503" d="M11 0v102q45 0 70 0.5t53 5t41 10.5t27.5 21t19.5 31.5t10 47t6 63t1 84.5v1167h135v-1167q0 -70 -3 -115t-13.5 -90.5t-30 -72t-52 -48t-80.5 -30.5t-114 -9h-70z" />
<glyph unicode="K" horiz-adv-x="873" d="M130 0v1532h135v-806l409 806h139l-316 -632l389 -900h-144l-327 809l-150 -269v-540h-135z" />
<glyph unicode="L" horiz-adv-x="687" d="M130 0v1532h135v-1423h428v-109h-563z" />
<glyph unicode="M" horiz-adv-x="1183" d="M130 0v1532h166l296 -1323q54 260 144 636t151 687h167v-1532h-120v1226l-283 -1226h-118l-283 1225v-1225h-120z" />
<glyph unicode="N" horiz-adv-x="963" d="M130 0v1532h104l485 -1213v1213h115v-1532h-102l-485 1187v-1187h-117z" />
<glyph unicode="O" horiz-adv-x="984" d="M101 444v642q0 81 12 148.5t40.5 127.5t72.5 101.5t111.5 65.5t154.5 24t155 -24t111.5 -65.5t72 -101.5t40.5 -127.5t12 -148.5v-642q0 -468 -391 -468t-391 468zM237 414q0 -329 255.5 -329t255.5 329v702q0 328 -255.5 328t-255.5 -328v-702z" />
<glyph unicode="P" horiz-adv-x="893" d="M130 0v1532h375q80 0 142 -22t103 -59.5t68 -90.5t38 -112.5t11 -127.5q0 -71 -9.5 -130.5t-35 -118t-65 -99t-104.5 -66t-149 -25.5h-239v-681h-135zM265 789h255h3q112 1 160 79q49 80 49 249q0 158 -52.5 232t-159.5 74h-255v-634z" />
<glyph unicode="Q" horiz-adv-x="990" d="M101 444v642q0 81 12 148.5t40.5 127.5t72.5 101.5t111.5 65.5t154.5 24t155 -24t111.5 -65.5t72 -101.5t40.5 -127.5t12 -148.5v-642q0 -320 -183 -422q34 -30 56.5 -48t59.5 -37t73 -24v-102q-74 11 -139.5 56.5t-134.5 122.5q-59 -14 -123 -14q-391 0 -391 468z M237 414q0 -329 255.5 -329t255.5 329v702q0 328 -255.5 328t-255.5 -328v-702z" />
<glyph unicode="R" horiz-adv-x="949" d="M130 0v1532h408q78 0 136.5 -21.5t94.5 -56.5t58.5 -87t31 -108t8.5 -123q0 -293 -214 -371l237 -765h-144l-224 748h-257v-748h-135zM265 856h273q57 0 97.5 23t60.5 66t28 89t8 106q0 49 -5 88t-18 76.5t-34.5 63t-56 40.5t-80.5 15h-273v-567z" />
<glyph unicode="S" horiz-adv-x="843" d="M61 369l119 35q7 -64 25 -118.5t49.5 -101t82.5 -73t116 -26.5q104 0 161 57.5t57 163.5q0 88 -52 170t-154 189l-239 252q-78 82 -120 154.5t-42 151.5q0 150 99 240t254 90q150 0 241.5 -85t122.5 -247l2 -14l-114 -36l-1 13q-18 115 -82.5 187.5t-168.5 72.5 q-102 0 -162 -51.5t-60 -151.5q0 -61 32.5 -119.5t92.5 -124.5l226 -245q8 -10 44 -48.5t47 -51t41 -48t41 -54t31.5 -52t28 -58t14.5 -57.5t7 -65q0 -164 -101 -253t-261 -89q-82 0 -149 31.5t-112.5 87t-74.5 124.5t-41 150z" />
<glyph unicode="T" horiz-adv-x="670" d="M-32 1423v109h734v-109h-301v-1423h-135v1423h-298z" />
<glyph unicode="U" horiz-adv-x="1007" d="M107 376v1156h135v-1187q0 -131 59.5 -195.5t201.5 -64.5q133 0 190 64.5t57 195.5v1187h135v-1156q0 -400 -382 -400q-92 0 -162 21.5t-114 57.5t-71.5 88t-38 108.5t-10.5 124.5z" />
<glyph unicode="V" horiz-adv-x="844" d="M11 1532h146l271 -1372l260 1372h146l-317 -1532h-177z" />
<glyph unicode="W" horiz-adv-x="1260" d="M20 1532h127l209 -1310l198 1310h171l181 -1310l208 1310h126l-255 -1532h-156l-191 1353l-206 -1353h-155z" />
<glyph unicode="X" horiz-adv-x="846" d="M27 0l326 771l-326 762h127l269 -645l261 645h138l-326 -777l326 -756h-130l-265 638l-261 -638h-139z" />
<glyph unicode="Y" horiz-adv-x="790" d="M-2 1532h137q18 -64 52 -181t69.5 -237t69 -230.5t54.5 -182.5l21 -70q57 209 132 462.5t126 438.5h133l-324 -1057v-475h-135v475z" />
<glyph unicode="Z" horiz-adv-x="770" d="M53 0v125l539 1298h-482v109h621v-126l-539 -1297h539v-109h-678z" />
<glyph unicode="[" horiz-adv-x="439" d="M134 -57v1640h294v-72h-159v-1496h159v-72h-294z" />
<glyph unicode="\" horiz-adv-x="568" d="M-11 1532h129l492 -1532h-129z" />
<glyph unicode="]" horiz-adv-x="448" d="M22 15h160v1496h-160v72h295v-1640h-295v72z" />
<glyph unicode="^" horiz-adv-x="657" d="M38 797l202 502h185l201 -502h-156l-138 481l-136 -481h-158z" />
<glyph unicode="_" horiz-adv-x="812" d="M102 0v102h620v-102h-620z" />
<glyph unicode="`" horiz-adv-x="401" d="M62 1533h144l110 -355h-50z" />
<glyph unicode="a" horiz-adv-x="719" d="M67 213q0 28 1 45.5t5 45t11.5 46t22 46t36 48.5t53.5 48t74 51.5t98.5 52.5t124.5 56v9q0 91 -8 155.5t-19.5 99.5t-30 55t-34.5 24.5t-39 4.5q-24 0 -42.5 -6.5t-40 -25.5t-35.5 -62.5t-18 -108.5v-6h-139q11 140 82.5 219.5t188.5 79.5q65 0 114.5 -21t78.5 -53.5 t47 -77.5t24 -88t6 -92v-512q0 -56 4 -117.5t9 -94.5l3 -34h-124l-17 129q-43 -75 -105.5 -114t-119.5 -39q-83 0 -147 65.5t-64 171.5zM201 238q0 -77 32 -114t76 -37q51 0 103 36.5t81 93.5v376q-65 -46 -102.5 -73.5t-78.5 -64.5t-62 -67t-35 -69t-14 -81z" />
<glyph unicode="b" horiz-adv-x="775" d="M107 0v1532h133v-566q42 61 96 92.5t110 31.5q38 0 66.5 -7.5t62.5 -38t55 -84t36 -153t15 -237.5v-84q0 -96 -7.5 -173.5t-19.5 -129.5t-31 -91t-37.5 -60.5t-42.5 -34.5t-43.5 -17t-43.5 -4q-136 0 -216 125v-101h-133zM240 182q40 -48 87.5 -77.5t87.5 -29.5 q18 0 29 1.5t26.5 9.5t25.5 24t20.5 46t16.5 72.5t10 107.5t4 149v85q0 98 -4.5 170.5t-14.5 117.5t-20 73t-26.5 40.5t-29.5 16t-33 3.5q-83 0 -179 -105v-704z" />
<glyph unicode="c" horiz-adv-x="726" d="M94 506v55q0 71 1 109t6.5 103t15.5 101.5t31.5 84t52 72t77.5 42t107 17.5q62 0 108.5 -20t75.5 -52t47.5 -81t26.5 -98t12 -112q0 -2 0.5 -5t0.5 -5h-134v8q-5 151 -35 213t-102 62q-34 0 -59.5 -9.5t-43 -34.5t-28 -56.5t-17 -85.5t-8 -111t-1.5 -142v-55 q0 -251 31 -345.5t126 -94.5q71 0 100.5 64t36.5 220v9h135v-7q-3 -67 -10.5 -118.5t-25.5 -102t-47 -83t-77 -52.5t-112 -20q-53 0 -95.5 10.5t-72.5 35.5t-52 49.5t-35 70t-20.5 77.5t-11 91.5t-4 94t-0.5 101.5z" />
<glyph unicode="d" horiz-adv-x="770" d="M90 486v84q0 138 14.5 237.5t36 153t55.5 84t62.5 38t66.5 7.5q56 0 110 -31.5t95 -92.5v566h134v-1532h-134v101q-80 -125 -215 -125q-24 0 -43.5 4t-43.5 17t-43 34.5t-37.5 60.5t-30.5 91t-19.5 129.5t-7.5 173.5zM223 485q0 -84 4 -149t10.5 -107.5t17 -72.5 t20.5 -46t25.5 -24t26.5 -9.5t29 -1.5q40 0 87 29.5t87 77.5v704q-95 105 -178 105q-20 0 -33 -3.5t-29.5 -16t-26.5 -40.5t-20.5 -73t-15 -117.5t-4.5 -170.5v-85z" />
<glyph unicode="e" horiz-adv-x="737" d="M96 491v149q1 111 16 192.5t39.5 130.5t63.5 78t80 39t96 10q143 0 205.5 -101.5t62.5 -320.5q0 -66 -1 -109h-427v-163q0 -105 10 -172t32 -101t49 -45.5t68 -11.5q59 0 99.5 60t41.5 201h125q-5 -61 -14 -108t-28 -94.5t-47.5 -78.5t-73 -50.5t-101.5 -19.5 q-113 0 -176 45q-62 45 -92 157q-28 104 -28 288v25zM231 625h296q0 18 -0.5 35.5t0.5 35.5v25q0 24 -1 49q-2 37 -5 71t-12 63t-22.5 50t-36.5 33.5t-53 12.5q-49 0 -80.5 -17.5t-49 -41.5t-25.5 -81t-9.5 -100.5t-1.5 -134.5z" />
<glyph unicode="f" horiz-adv-x="473" d="M9 991v75h149v115v16v45.5t3.5 48.5t10 53t20.5 47.5t34.5 42t52.5 26t72 10.5q61 0 108 -11v-97q-21 5 -66 5q-29 0 -49.5 -9t-30.5 -19.5t-15.5 -32t-6 -35t-0.5 -37.5v-8v-160h171v-75h-171v-991h-133v991h-149z" />
<glyph unicode="g" horiz-adv-x="784" d="M15 -210q0 90 58 159.5t141 111.5q-13 3 -42.5 11.5t-66.5 26.5t-37 35q0 11 3 25t9.5 29.5t13.5 30t18 32t19 30.5t19.5 30t17.5 25t16 21t11 15q-63 57 -94 147t-31 187q0 51 10 103t33.5 103t58 90t87.5 63t117 24q86 0 142.5 -41t109.5 -124q17 29 30 48.5t34.5 46.5 t46.5 44t51 24v-129q-34 -7 -70 -30.5t-64 -54.5q34 -94 34 -161q0 -64 -11 -121t-34.5 -107.5t-59 -87t-88 -57t-117.5 -20.5q-77 0 -128 21q-49 -93 -62 -153q-4 -21 24.5 -30.5t145.5 -33.5q37 -7 57 -12q73 -15 125.5 -32.5t98.5 -43.5t69 -64t23 -87q0 -44 -14.5 -80 t-37.5 -60t-56.5 -42t-65.5 -28t-70 -15.5t-64.5 -7t-54.5 -1.5q-355 0 -355 140zM142 -170q0 -20 9 -35.5t29 -24.5t37.5 -14t48.5 -7.5t47 -3t47 -0.5h12q236 0 236 115q0 63 -33 95.5t-109 47.5l-190 41q-45 -33 -89.5 -100t-44.5 -114zM206 691q0 -33 3 -64t14 -71.5 t29 -69.5t51 -49t77.5 -20t77.5 20t51 49.5t28.5 69.5t13.5 71.5t3 63.5q0 31 -2.5 62.5t-13.5 74.5t-28.5 75t-51 55.5t-77.5 23.5q-37 0 -67 -15.5t-48.5 -42.5t-31 -57t-18 -65t-8 -60.5t-2.5 -50.5z" />
<glyph unicode="h" horiz-adv-x="765" d="M107 0v1532h133v-566q40 62 100.5 93t124.5 31q81 0 141 -65.5t60 -186.5v-838h-136v831q0 160 -112 160q-43 0 -93 -30.5t-85 -77.5v-883h-133z" />
<glyph unicode="i" horiz-adv-x="360" d="M117 0v1066h134v-1066h-134zM117 1310v159h134v-159h-134z" />
<glyph unicode="j" horiz-adv-x="380" d="M-39 -182q41 -1 50 -1q29 0 51 8t34.5 23.5t20.5 30.5t10.5 37.5t3.5 35t1 32.5v1082h133v-1107q0 -244 -232 -244q-36 0 -72 7v96zM132 1311v159h133v-159h-133z" />
<glyph unicode="k" horiz-adv-x="738" d="M107 0v1532h133v-971l333 505h151l-256 -404l254 -662h-140l-209 581l-133 -163v-418h-133z" />
<glyph unicode="l" horiz-adv-x="393" d="M130 0v1532h133v-1532h-133z" />
<glyph unicode="m" horiz-adv-x="1188" d="M107 0v1066h134v-99q104 123 237 123q54 0 105 -33.5t73 -87.5q52 60 114.5 90.5t114.5 30.5q82 0 142.5 -57t60.5 -142v-891h-133v863q0 67 -30 97.5t-79 30.5q-83 0 -170 -86v-905h-133v864q0 127 -113 127q-46 0 -96 -28.5t-94 -76.5v-886h-133z" />
<glyph unicode="n" horiz-adv-x="765" d="M107 0v1066h133v-100q43 62 102.5 93t123.5 31q80 0 140 -66t60 -187v-837h-136v840q0 79 -31 115t-82 36q-41 0 -89 -28.5t-88 -78.5v-884h-133z" />
<glyph unicode="o" horiz-adv-x="752" d="M94 506v55q0 71 1 109t6 103t15 101.5t30.5 84t50.5 72t75.5 42t104 17.5t104 -17.5t75.5 -42t50.5 -72t30.5 -84t15 -101.5t6 -103t1 -109v-55q0 -60 -0.5 -90.5t-3 -84t-7.5 -83t-14.5 -73t-23.5 -67.5t-35 -53t-49 -44t-65.5 -25t-84 -10t-84 10t-65.5 25t-49 44 t-35 53t-24 67.5t-14.5 73t-7 83t-3 84t-0.5 90.5zM228 506q0 -251 29.5 -345.5t119 -94.5t119 94.5t29.5 345.5v55q0 84 -1.5 142t-7.5 111t-16 85t-26.5 56.5t-40.5 34.5t-56.5 10t-56.5 -10t-40.5 -34.5t-26.5 -56t-16 -85.5t-7.5 -111t-1.5 -142v-55z" />
<glyph unicode="p" horiz-adv-x="775" d="M107 -343v1409h133v-100q80 124 216 124q24 0 43.5 -4t43.5 -17t42.5 -34.5t37.5 -60.5t31 -91t19.5 -129.5t7.5 -173.5v-84q0 -138 -15 -237.5t-36 -152.5t-55 -84t-62.5 -38.5t-66.5 -7.5q-56 0 -110 31.5t-96 93.5v-444h-133zM240 181q96 -106 179 -106q20 0 33 3.5 t29.5 16t26.5 40.5t20 73t14.5 118t4.5 171v84q0 84 -4 149t-10 107.5t-16.5 72.5t-20.5 46t-25.5 24t-26.5 9.5t-29 1.5q-40 0 -87.5 -29.5t-87.5 -77.5v-703z" />
<glyph unicode="q" horiz-adv-x="775" d="M94 496v84q0 96 7.5 173.5t20 129.5t31 91t37 60.5t42.5 34.5t43.5 17t44.5 4q135 0 215 -124v100h133v-1409h-133v444q-42 -62 -96 -93.5t-110 -31.5q-38 0 -66.5 7.5t-62.5 38.5t-55 84t-36 152.5t-15 237.5zM228 497q0 -98 4.5 -171t14.5 -118t20.5 -73t27 -40.5 t29 -16t32.5 -3.5q84 0 179 106v703q-40 48 -87.5 77.5t-87.5 29.5q-17 0 -28.5 -1.5t-27 -9.5t-25 -24t-20.5 -46t-17 -72.5t-10 -107.5t-4 -149v-84z" />
<glyph unicode="r" horiz-adv-x="475" d="M107 0v1066h133v-150q25 83 90 124t135 43v-134q-10 3 -21 3q-204 0 -204 -156v-796h-133z" />
<glyph unicode="s" horiz-adv-x="666" d="M51 267l102 35q13 -39 31 -75.5t44 -73t61 -59t73 -22.5q71 0 106 43t35 116q0 102 -183 262l-77 68q-88 77 -133 138t-45 137q0 120 73 186t195 66q58 0 105 -22t79 -61.5t54 -85.5t35 -101l-118 -37q-8 50 -25.5 94.5t-53.5 80.5t-82 36q-60 0 -95 -40.5t-35 -104.5 q0 -53 34 -101t99 -103l85 -73q41 -36 62.5 -56t55 -57t50.5 -67t30.5 -71.5t14.5 -85.5q0 -119 -75 -188t-196 -69q-118 0 -196.5 82.5t-109.5 208.5z" />
<glyph unicode="t" horiz-adv-x="489" d="M4 991v75h145v378h133v-378h171v-75h-171v-733q0 -38 1 -60t6 -47.5t14 -37.5t26.5 -20.5t43.5 -8.5q44 0 78 7v-92q-59 -15 -115 -15q-50 0 -86 15.5t-55 38.5t-30 61.5t-13.5 72t-2.5 80.5v739h-145z" />
<glyph unicode="u" horiz-adv-x="793" d="M100 229v837h135v-840q0 -79 31 -115t82 -36q42 0 89.5 29t87.5 78v884h134v-1066h-134v101q-43 -63 -102.5 -94t-123.5 -31q-79 0 -139 66.5t-60 186.5z" />
<glyph unicode="v" horiz-adv-x="664" d="M22 1066h130l191 -945l172 945h128l-223 -1066h-156z" />
<glyph unicode="w" horiz-adv-x="1033" d="M37 1066h117l141 -909l152 909h142l164 -909l128 909h115l-175 -1066h-129l-171 879l-166 -879h-141z" />
<glyph unicode="x" horiz-adv-x="696" d="M35 0l229 557l-228 509h138l175 -444l174 444h138l-228 -509l229 -557h-130l-183 475l-183 -475h-131z" />
<glyph unicode="y" horiz-adv-x="691" d="M33 1066h135l185 -891l182 891h135l-267 -1140q-27 -103 -106.5 -145.5t-225.5 -46.5h-2v109q106 7 155.5 35.5t49.5 80.5q0 65 -10 126z" />
<glyph unicode="z" horiz-adv-x="618" d="M42 0v128l420 837h-363v101h488v-127l-410 -837h405v-102h-540z" />
<glyph unicode="{" horiz-adv-x="462" d="M31 684v167q70 0 93.5 36t23.5 105t0.5 105.5t3 97t8 94t16 81t25.5 74t38.5 58t53.5 47t71 26t91 10.5v-100q-46 0 -78.5 -11t-53 -42t-32 -58t-16 -90.5t-5.5 -105t-1 -133.5q0 -51 -5 -89.5t-19 -78.5t-45 -68t-76 -42q45 -13 76 -41t45 -68t19 -79t5 -89 q0 -92 1 -134t5.5 -105t16 -90t32 -58.5t53 -42t78.5 -10.5v-101q-50 0 -91 11t-71 26.5t-53.5 46.5t-38.5 57.5t-25.5 74.5t-16 81t-8 93.5t-3 97t-0.5 105.5t-23.5 105.5t-93.5 36.5z" />
<glyph unicode="|" horiz-adv-x="370" d="M134 -114v1668h105v-1668h-105z" />
<glyph unicode="}" horiz-adv-x="471" d="M22 50q47 0 79 10.5t52.5 42t32 58.5t16 90t5.5 105t1 134q0 50 5 89t19.5 79t45 68t75.5 41q-45 14 -75.5 42t-45 68t-19.5 78.5t-5 89.5q0 92 -1 133.5t-5.5 105t-16 90.5t-32 58t-52.5 42t-79 11v100q50 0 91 -10.5t71 -26t53.5 -47t38.5 -58t25.5 -74t16 -81t8 -94 t3 -97t0.5 -105.5t23.5 -105t93.5 -36v-167q-70 0 -93.5 -36.5t-23.5 -105.5t-0.5 -105.5t-3 -97t-8 -93.5t-16 -81t-25.5 -74.5t-38.5 -57.5t-53.5 -46.5t-71 -26.5t-91 -11v101z" />
<glyph unicode="~" horiz-adv-x="725" d="M87 854q1 16 3.5 32t12 42.5t25 44.5t46 32.5t71.5 14.5q37 0 124 -34t121 -34q25 0 39.5 13t18.5 47h103q0 -1 -0.5 -12t-4 -25.5t-8.5 -33t-16 -35t-27 -31t-41 -23.5t-57 -9q-51 0 -135 34.5t-117 34.5q-25 0 -38 -12.5t-17 -45.5h-103z" />
<glyph unicode="&#xa1;" horiz-adv-x="386" d="M106 1066v160h165v-160h-165zM117 -305l53 1185h48l71 -1185h-172z" />
<glyph unicode="&#xa2;" horiz-adv-x="676" d="M68 707v55q0 64 0.5 97.5t5 92.5t14 92.5t28.5 77.5t46.5 67.5t69.5 42.5t96 23v118h58v-119q68 -5 115 -35t73 -82.5t38 -109t16 -132.5q0 -1 0.5 -5.5t0.5 -6.5h-133v12q-1 29 -2 40.5t-3 42t-6 46.5l-10.5 42t-16.5 40.5t-24 30t-33.5 22t-43.5 6.5q-31 0 -54.5 -8.5 t-39.5 -21.5t-27.5 -41.5t-17.5 -54t-9.5 -75.5t-5 -90t-2.5 -112v-55q0 -77 2.5 -129.5t8 -101.5t16.5 -78.5t28 -53t41.5 -33t58.5 -9.5q19 0 35 4.5t28.5 14.5t22 19.5t17 28t13 30t9 36t6 36t4 39t2.5 36t2 34.5q0 3 0.5 8.5t0.5 6.5h134q0 -1 -0.5 -4.5t-0.5 -5.5 q-2 -64 -9.5 -113t-24 -97.5t-42 -80.5t-67.5 -54t-99 -26v-137h-58v137q-54 3 -96.5 21t-70 40t-46 65t-28.5 75.5t-14.5 92.5t-5 95t-0.5 104z" />
<glyph unicode="&#xa3;" horiz-adv-x="744" d="M49 0v58l114 44v582h-114v97h114v291q0 38 1.5 71t7.5 84.5t17 92.5t33 86.5t51.5 76t75.5 50.5t103 20q51 0 91.5 -15.5t65.5 -38t43 -58t26.5 -64t13.5 -68.5t5.5 -59t0.5 -48v-7h-107q0 36 -0.5 53.5t-3 49.5t-8 48.5t-15.5 38t-25.5 32t-38.5 17.5t-53 5 q-22 -1 -40 -6.5t-32.5 -17t-25.5 -23.5t-18.5 -34t-13 -39t-9.5 -47t-6 -50.5t-3 -58.5t-1 -60.5v-66.5v-250h257v-102h-257v-582h399v-102h-648z" />
<glyph unicode="&#xa4;" horiz-adv-x="914" d="M94 565q0 81 31 156.5t89 126.5l-64 104l48 34l64 -103q85 52 197 52q122 0 210 -61l71 112l48 -34l-73 -115q53 -52 81 -123.5t28 -148.5q0 -78 -29 -150.5t-84 -125.5l77 -121l-48 -34l-75 119q-88 -58 -206 -58q-109 0 -193 50l-68 -111l-48 34l69 111 q-61 52 -93 127.5t-32 158.5zM188 565q0 -74 29 -137t92 -106t150 -45q87 2 150 44.5t92.5 106t29.5 137.5q0 115 -72 200t-200 89q-129 -4 -200 -88.5t-71 -200.5z" />
<glyph unicode="&#xa5;" horiz-adv-x="809" d="M9 1532h150l251 -919q40 146 84.5 310t81 298.5t85.5 310.5h142l-303 -987h161v-80h-182v-183h182v-81h-182v-201h-135v201h-189v81h189v183h-189v80h166z" />
<glyph unicode="&#xa6;" horiz-adv-x="358" d="M122 -12v490h117v-490h-117zM122 791v491h117v-491h-117z" />
<glyph unicode="&#xa7;" horiz-adv-x="742" d="M69 267l103 35q12 -39 30.5 -75.5t44 -73t61 -59t73.5 -22.5q70 0 105.5 43t35.5 116q0 102 -183 262l-77 68q-37 32 -49 43t-41.5 39.5t-42 45.5t-29 43t-23 51.5t-6.5 52.5q0 87 39.5 146.5t111.5 86.5q-57 53 -88 103.5t-31 107.5q0 120 73 186.5t195 66.5 q58 0 105 -22.5t79 -62t54 -85.5t35 -101l-118 -36q-8 49 -25.5 93.5t-53.5 80.5t-82 36q-60 0 -95 -40.5t-35 -104.5q0 -36 23.5 -75t49 -63.5t73.5 -65.5l84 -73q48 -41 78.5 -72.5t65 -75t52 -91t18.5 -98.5q0 -77 -33 -134.5t-92 -88.5q90 -104 93 -221q0 -119 -75 -188 t-196 -69q-118 0 -196.5 82.5t-110.5 208.5zM203 847q0 -27 10.5 -54t36 -55t44 -45t55.5 -50l130 -113q75 33 75 145q0 104 -183 262l-61 54q-50 -8 -78.5 -47.5t-28.5 -96.5z" />
<glyph unicode="&#xa8;" horiz-adv-x="707" d="M101 1234v159h163v-159h-163zM442 1234v159h164v-159h-164z" />
<glyph unicode="&#xa9;" horiz-adv-x="1226" d="M59 585q0 89 22 173.5t68.5 159.5t112 131t157.5 89t200.5 33t200.5 -33t157.5 -89t112 -131t68.5 -159.5t22 -173.5t-22 -173.5t-68.5 -160t-112 -131.5t-157.5 -89t-200.5 -33t-200.5 33t-157.5 89t-112 131.5t-68.5 160t-22 173.5zM139 585q0 -80 19 -156t58.5 -143 t95.5 -117.5t135 -79.5t172.5 -29t172.5 29t135 79.5t95.5 117.5t58.5 143t19 156t-19 155.5t-58.5 143t-95.5 117.5t-135 79.5t-172.5 29.5t-172.5 -29.5t-135 -79.5t-95.5 -117.5t-58.5 -143t-19 -155.5zM411 594q0 40 0.5 63.5t2.5 61t6 61.5t11 55.5t17.5 51.5t27 41.5 t37 33.5t49 20t63.5 8q41 0 73.5 -15t52 -34.5t33 -50t20 -51.5t9.5 -51t3 -35v-15h-77q-1 42 -6 71.5t-16.5 58t-34.5 43.5t-58 15q-30 0 -51 -7.5t-36 -26t-23 -41t-12.5 -64.5t-6 -84t-1.5 -109.5t1.5 -109.5t6 -83.5t12.5 -64.5t23 -41.5t36 -25.5t51 -7q35 0 58 14.5 t34.5 43t16.5 58.5t6 71h77q0 -5 -0.5 -14.5t-4 -35.5t-10 -49.5t-21 -52.5t-34 -50t-51 -35t-70.5 -14q-35 0 -63.5 8t-49 20t-37 33t-27 41t-17.5 52t-11 55.5t-6 61t-2.5 61.5t-0.5 64z" />
<glyph unicode="&#xaa;" horiz-adv-x="663" d="M84 168q0 30 1 47t8 45.5t20 48t39 47.5t63.5 51.5t94 52t129.5 56.5q0 85 -8.5 139t-26 77.5t-34 31t-40.5 7.5q-20 0 -35.5 -6t-34 -22.5t-30 -54t-14.5 -92.5h-115q8 117 68 183.5t157 66.5q54 0 95.5 -17.5t65.5 -45t39 -65t20.5 -73t5.5 -76.5v-373q0 -45 3.5 -94 t6.5 -75l3 -27h-104l-14 107q-36 -63 -88.5 -95t-99.5 -32q-69 0 -122 52t-53 136zM196 189q0 -60 26.5 -88.5t63.5 -28.5q42 0 85 28t68 72v294q-68 -43 -104.5 -70t-73 -61.5t-51 -69t-14.5 -76.5z" />
<glyph unicode="&#xab;" horiz-adv-x="777" d="M69 513v114l346 402v-178l-246 -281l246 -282v-178zM347 513v114l345 402v-178l-245 -281l245 -282v-178z" />
<glyph unicode="&#xac;" horiz-adv-x="584" d="M89 399v102h392v-273h-50v171h-342z" />
<glyph unicode="&#xad;" horiz-adv-x="586" d="M104 399v102h393v-102h-393z" />
<glyph unicode="&#xae;" horiz-adv-x="1226" d="M59 585q0 89 22 173.5t68.5 159.5t112 131t157.5 89t200.5 33t200.5 -33t157.5 -89t112 -131t68.5 -159.5t22 -173.5t-22 -173.5t-68.5 -160t-112 -131.5t-157.5 -89t-200.5 -33t-200.5 33t-157.5 89t-112 131.5t-68.5 160t-22 173.5zM139 585q0 -80 19 -156t58.5 -143 t95.5 -117.5t135 -79.5t172.5 -29t172.5 29t135 79.5t95.5 117.5t58.5 143t19 156t-19 155.5t-58.5 143t-95.5 117.5t-135 79.5t-172.5 29.5t-172.5 -29.5t-135 -79.5t-95.5 -117.5t-58.5 -143t-19 -155.5zM449 214v750h170q210 0 210 -214q0 -62 -42 -108.5t-90 -56.5 q12 -26 137 -368h-77l-118 358h-126v-361h-64zM513 619h59h42t37 2t36 6.5t27.5 14t24.5 23.5t12.5 35.5t5.5 49.5q0 87 -36.5 127.5t-113.5 40.5h-94v-299z" />
<glyph unicode="&#xaf;" horiz-adv-x="624" d="M117 1231v102h392v-102h-392z" />
<glyph unicode="&#xb0;" horiz-adv-x="566" d="M87 1338.5q0 78.5 50 136.5t145 58t145 -58t50 -136.5t-50 -136t-145 -57.5t-145 57.5t-50 136zM157 1338.5q0 -52.5 30 -91.5t95 -39t95.5 39t30.5 91.5t-30.5 91.5t-95.5 39t-95 -39t-30 -91.5z" />
<glyph unicode="&#xb1;" horiz-adv-x="624" d="M94 0v102h449v-102h-449zM94 513v102h171v171h107v-171h171v-102h-171v-171h-107v171h-171z" />
<glyph unicode="&#xb2;" horiz-adv-x="679" d="M89 522v89l271 408q105 167 105 247q0 189 -111 189q-42 0 -71 -18.5t-42.5 -54t-18.5 -73t-5 -89.5h-126q0 159 64 245t198 86q119 0 178.5 -75.5t59.5 -208.5q0 -103 -116 -283l-236 -364h339v-98h-489z" />
<glyph unicode="&#xb3;" horiz-adv-x="685" d="M93 850h115q0 -51 5 -88.5t18.5 -73t41 -53.5t68.5 -18q68 0 97 49.5t29 146.5q0 59 -41.5 126.5t-101.5 80.5v75q69 19 106 68.5t37 104.5q0 190 -117 190q-36 0 -62 -13.5t-41.5 -34.5t-24 -53t-11.5 -63t-3 -71h-115q0 157 63 243t193 86q114 0 174 -78t60 -196 q0 -66 -40 -129t-101 -92q59 -34 100 -108t41 -136q0 -133 -61.5 -212t-181.5 -79q-126 0 -186.5 86t-60.5 242z" />
<glyph unicode="&#xb4;" horiz-adv-x="395" d="M85 1178l110 355h144l-204 -355h-50z" />
<glyph unicode="&#xb6;" horiz-adv-x="862" d="M20 1037q0 124 83 193t248 69h389v-1299h-95v780h-188v-780h-111v780q-151 0 -238.5 67t-87.5 190z" />
<glyph unicode="&#xb7;" horiz-adv-x="396" d="M117 627v159h164v-159h-164z" />
<glyph unicode="&#xb8;" horiz-adv-x="399" d="M99 -298q131 0 131 59q0 28 -26 60.5t-66 59.5v119h57v-102q126 -74 126 -145q0 -46 -59 -75t-163 -29v53z" />
<glyph unicode="&#xb9;" horiz-adv-x="464" d="M45 1253v111q54 20 116 63t99 105h77v-1009h-121v809q-37 -25 -88 -48.5t-83 -30.5z" />
<glyph unicode="&#xba;" horiz-adv-x="636" d="M99 1098v44q0 43 0.5 65.5t2 64t5 64t11 57.5t18.5 54.5t28 42.5t38 35.5t51 21t65.5 8.5t65.5 -8.5t51.5 -21t38 -35.5t28 -42.5t19 -54.5t11 -57.5t5 -64t2 -64t0.5 -65.5v-44q0 -59 -0.5 -89.5t-4.5 -82.5t-12 -79.5t-24 -63t-39 -54t-58.5 -31.5t-81.5 -13 q-54 0 -93 14.5t-62 48t-37.5 64t-20 88.5t-6.5 93.5t-1 104.5zM203 1098q0 -196 22.5 -269t93.5 -73t93.5 73t22.5 269v44q0 79 -2 130t-9 95.5t-20 68t-34 36.5t-51 13q-73 0 -94.5 -73t-21.5 -270v-44z" />
<glyph unicode="&#xbb;" horiz-adv-x="776" d="M99 110v178l245 282l-245 281v178l345 -402v-114zM376 110v178l246 282l-246 281v178l346 -402v-114z" />
<glyph unicode="&#xbc;" horiz-adv-x="1334" d="M0 1253v111q53 20 115.5 63t98.5 105h78v-1009h-121v809q-37 -25 -88 -48.5t-83 -30.5zM310 0l491 1532h129l-492 -1532h-128zM786 246v84l268 677h187v-671h119v-90h-119v-247h-121v247h-334zM915 336h205l-1 568z" />
<glyph unicode="&#xbd;" horiz-adv-x="1527" d="M0 1253v111q53 20 115.5 63t98.5 105h78v-1009h-121v809q-37 -25 -88 -48.5t-83 -30.5zM417 0l491 1532h129l-492 -1532h-128zM1002 -1v89l272 409q104 167 104 247q0 189 -111 189q-42 0 -71 -19t-42.5 -54.5t-18.5 -73t-5 -88.5h-126q0 158 64 244.5t198 86.5 q119 0 178.5 -75.5t59.5 -208.5q0 -103 -116 -283l-235 -364h339v-99h-490z" />
<glyph unicode="&#xbe;" horiz-adv-x="1682" d="M53 850h115q0 -51 5 -88.5t18.5 -73t41 -53.5t68.5 -18q67 0 96.5 49.5t29.5 146.5q0 59 -41.5 126.5t-101.5 80.5v75q69 19 106 68.5t37 104.5q0 190 -117 190q-36 0 -62 -13.5t-41.5 -34.5t-24 -53t-11.5 -63t-3 -71h-115q0 157 63 243t193 86q114 0 174 -78t60 -196 q0 -66 -40 -129t-101 -92q59 -34 100 -108t41 -136q0 -133 -61.5 -212t-181.5 -79q-126 0 -186.5 86t-60.5 242zM574 0l491 1532h129l-492 -1532h-128zM1133 246v84l268 677h187v-671h119v-90h-119v-247h-121v247h-334zM1262 336h205l-1 568z" />
<glyph unicode="&#xbf;" horiz-adv-x="721" d="M11 53q0 161 87.5 285t263.5 233v253h119v-302q-64 -39 -117 -79.5t-89 -77t-62.5 -74.5t-41.5 -69.5t-24 -64.5t-11.5 -56t-2.5 -46q0 -72 18.5 -126t51 -85.5t71.5 -47t84 -15.5q105 0 172.5 71t68.5 200l1 126h119v-130q0 -89 -31 -161.5t-82.5 -118.5t-115.5 -71 t-132 -25q-54 0 -103.5 15t-94 45.5t-77.5 74.5t-52.5 107.5t-19.5 138.5zM340 1066v160h164v-160h-164z" />
<glyph unicode="&#xc0;" d="M42 0l302 1532h177l302 -1532h-137l-76 399h-354l-78 -399h-136zM204 2053h144l110 -355h-50zM272 489h321l-161 902z" />
<glyph unicode="&#xc1;" d="M42 0l302 1532h177l302 -1532h-137l-76 399h-354l-78 -399h-136zM272 489h321l-161 902zM407 1698l110 355h144l-204 -355h-50z" />
<glyph unicode="&#xc2;" d="M42 0l302 1532h177l302 -1532h-137l-76 399h-354l-78 -399h-136zM201 1698l138 273h190l136 -273h-98l-133 266l-133 -266h-100zM272 489h321l-161 902z" />
<glyph unicode="&#xc3;" d="M42 0l302 1532h177l302 -1532h-137l-76 399h-354l-78 -399h-136zM186 1709q1 17 3 33t12.5 42t27 44.5t48.5 32.5t75 14q25 0 84 -34t81 -34q26 0 40 13t19 47h103l-1 -12q-1 -12 -4 -26t-9 -32.5t-18 -35t-28.5 -31t-43 -23.5t-60.5 -9t-92 34.5t-80 34.5 q-25 0 -37.5 -12.5t-17.5 -45.5h-102zM272 489h321l-161 902z" />
<glyph unicode="&#xc4;" d="M42 0l302 1532h177l302 -1532h-137l-76 399h-354l-78 -399h-136zM180 1699v159h163v-159h-163zM272 489h321l-161 902zM521 1699v159h164v-159h-164z" />
<glyph unicode="&#xc5;" d="M42 0l302 1532h177l302 -1532h-137l-76 399h-354l-78 -399h-136zM237 1733.5q0 78.5 50 136.5t145 58t145 -58t50 -136.5t-50 -136t-145 -57.5t-145 57.5t-50 136zM272 489h321l-161 902zM307 1733.5q0 -52.5 30 -91.5t95 -39t95.5 39t30.5 91.5t-30.5 91.5t-95.5 39 t-95 -39t-30 -91.5z" />
<glyph unicode="&#xc6;" horiz-adv-x="1228" d="M11 0l566 1532h598v-109h-399v-580h285v-103h-285v-631h399v-109h-534v399h-348l-147 -399h-135zM325 489h315v902z" />
<glyph unicode="&#xc7;" horiz-adv-x="918" d="M101 444v642q0 82 11 148.5t38 127t70 102t109 65.5t153 24q360 0 360 -467v-62h-129v92q0 74 -11 131t-37 103t-72 70t-111 24q-58 0 -102 -16t-71 -44.5t-43.5 -71.5t-22.5 -89.5t-6 -106.5v-702q0 -76 10.5 -131.5t37 -102t76 -71t121.5 -24.5q65 0 111 24.5t72 70.5 t37 103t11 131v105h129v-75q0 -81 -10 -147.5t-35 -127.5t-65 -102.5t-103.5 -66t-146.5 -24.5q-89 0 -156 24.5t-109.5 66t-68.5 102.5t-36.5 127t-10.5 148zM404 -310q131 0 131 59q0 28 -26 60.5t-66 59.5v119h57v-102q126 -74 126 -145q0 -46 -59 -75t-163 -29v53z" />
<glyph unicode="&#xc8;" horiz-adv-x="707" d="M130 0v1532h534v-109h-399v-580h285v-103h-285v-631h399v-109h-534zM168 2053h144l110 -355h-50z" />
<glyph unicode="&#xc9;" horiz-adv-x="707" d="M130 0v1532h534v-109h-399v-580h285v-103h-285v-631h399v-109h-534zM372 1698l110 355h144l-204 -355h-50z" />
<glyph unicode="&#xca;" horiz-adv-x="707" d="M130 0v1532h534v-109h-399v-580h285v-103h-285v-631h399v-109h-534zM165 1698l138 273h190l136 -273h-98l-133 266l-133 -266h-100z" />
<glyph unicode="&#xcb;" horiz-adv-x="707" d="M130 0v1532h534v-109h-399v-580h285v-103h-285v-631h399v-109h-534zM145 1699v159h163v-159h-163zM486 1699v159h164v-159h-164z" />
<glyph unicode="&#xcc;" horiz-adv-x="395" d="M-32 2053h144l110 -355h-50zM129 0v1532h135v-1532h-135z" />
<glyph unicode="&#xcd;" horiz-adv-x="395" d="M129 0v1532h135v-1532h-135zM171 1698l110 355h144l-204 -355h-50z" />
<glyph unicode="&#xce;" horiz-adv-x="395" d="M-35 1698l138 273h190l136 -273h-98l-133 266l-133 -266h-100zM129 0v1532h135v-1532h-135z" />
<glyph unicode="&#xcf;" horiz-adv-x="395" d="M-56 1699v159h163v-159h-163zM129 0v1532h135v-1532h-135zM285 1699v159h164v-159h-164z" />
<glyph unicode="&#xd0;" horiz-adv-x="1003" d="M38 739v83h125v710h344q88 0 155.5 -23.5t111.5 -64t72 -99.5t40 -125t12 -145v-623q0 -452 -391 -452h-344v739h-125zM298 109h209q256 0 256 313v683q0 318 -256 318h-209v-601h178v-83h-178v-630z" />
<glyph unicode="&#xd1;" horiz-adv-x="963" d="M130 0v1532h104l485 -1213v1213h115v-1532h-102l-485 1187v-1187h-117zM235 1709q1 17 3 33t12.5 42t27 44.5t48.5 32.5t75 14q25 0 84 -34t81 -34q26 0 40 13t19 47h103l-1 -12q-1 -12 -4 -26t-9 -32.5t-18 -35t-28.5 -31t-43 -23.5t-60.5 -9t-92 34.5t-80 34.5 q-25 0 -37.5 -12.5t-17.5 -45.5h-102z" />
<glyph unicode="&#xd2;" horiz-adv-x="984" d="M101 444v642q0 81 12 148.5t40.5 127.5t72.5 101.5t111.5 65.5t154.5 24t155 -24t111.5 -65.5t72 -101.5t40.5 -127.5t12 -148.5v-642q0 -468 -391 -468t-391 468zM237 414q0 -329 255.5 -329t255.5 329v702q0 328 -255.5 328t-255.5 -328v-702zM263 2053h144l110 -355 h-50z" />
<glyph unicode="&#xd3;" horiz-adv-x="984" d="M101 444v642q0 81 12 148.5t40.5 127.5t72.5 101.5t111.5 65.5t154.5 24t155 -24t111.5 -65.5t72 -101.5t40.5 -127.5t12 -148.5v-642q0 -468 -391 -468t-391 468zM237 414q0 -329 255.5 -329t255.5 329v702q0 328 -255.5 328t-255.5 -328v-702zM467 1698l110 355h144 l-204 -355h-50z" />
<glyph unicode="&#xd4;" horiz-adv-x="984" d="M101 444v642q0 81 12 148.5t40.5 127.5t72.5 101.5t111.5 65.5t154.5 24t155 -24t111.5 -65.5t72 -101.5t40.5 -127.5t12 -148.5v-642q0 -468 -391 -468t-391 468zM237 414q0 -329 255.5 -329t255.5 329v702q0 328 -255.5 328t-255.5 -328v-702zM260 1698l138 273h190 l136 -273h-98l-133 266l-133 -266h-100z" />
<glyph unicode="&#xd5;" horiz-adv-x="984" d="M101 444v642q0 81 12 148.5t40.5 127.5t72.5 101.5t111.5 65.5t154.5 24t155 -24t111.5 -65.5t72 -101.5t40.5 -127.5t12 -148.5v-642q0 -468 -391 -468t-391 468zM237 414q0 -329 255.5 -329t255.5 329v702q0 328 -255.5 328t-255.5 -328v-702zM246 1709q1 17 3 33 t12.5 42t27 44.5t48.5 32.5t75 14q25 0 84 -34t81 -34q26 0 40 13t19 47h103l-1 -12q-1 -12 -4 -26t-9 -32.5t-18 -35t-28.5 -31t-43 -23.5t-60.5 -9t-92 34.5t-80 34.5q-25 0 -37.5 -12.5t-17.5 -45.5h-102z" />
<glyph unicode="&#xd6;" horiz-adv-x="984" d="M101 444v642q0 81 12 148.5t40.5 127.5t72.5 101.5t111.5 65.5t154.5 24t155 -24t111.5 -65.5t72 -101.5t40.5 -127.5t12 -148.5v-642q0 -468 -391 -468t-391 468zM237 414q0 -329 255.5 -329t255.5 329v702q0 328 -255.5 328t-255.5 -328v-702zM240 1699v159h163v-159 h-163zM581 1699v159h164v-159h-164z" />
<glyph unicode="&#xd7;" horiz-adv-x="599" d="M45 365l171 171l-171 171l68 66l171 -170l171 170l67 -66l-170 -171q148 -150 170 -171l-67 -68l-171 171l-171 -171z" />
<glyph unicode="&#xd8;" horiz-adv-x="984" d="M101 444v642q0 81 12 148.5t40.5 127.5t72.5 101.5t111.5 65.5t154.5 24q122 0 207 -47l50 158l58 -18l-57 -176q133 -115 133 -384v-642q0 -468 -391 -468q-122 0 -207 46l-51 -157l-57 18l56 175q-132 114 -132 386zM237 414q0 -135 42 -215l381 1189q-60 56 -168 56 q-255 0 -255 -328v-702zM323 142q62 -57 169 -57q256 0 256 329v702q0 134 -42 215z" />
<glyph unicode="&#xd9;" horiz-adv-x="1007" d="M107 376v1156h135v-1187q0 -131 59.5 -195.5t201.5 -64.5q133 0 190 64.5t57 195.5v1187h135v-1156q0 -400 -382 -400q-92 0 -162 21.5t-114 57.5t-71.5 88t-38 108.5t-10.5 124.5zM267 2053h144l110 -355h-50z" />
<glyph unicode="&#xda;" horiz-adv-x="1007" d="M107 376v1156h135v-1187q0 -131 59.5 -195.5t201.5 -64.5q133 0 190 64.5t57 195.5v1187h135v-1156q0 -400 -382 -400q-92 0 -162 21.5t-114 57.5t-71.5 88t-38 108.5t-10.5 124.5zM470 1698l110 355h144l-204 -355h-50z" />
<glyph unicode="&#xdb;" horiz-adv-x="1007" d="M107 376v1156h135v-1187q0 -131 59.5 -195.5t201.5 -64.5q133 0 190 64.5t57 195.5v1187h135v-1156q0 -400 -382 -400q-92 0 -162 21.5t-114 57.5t-71.5 88t-38 108.5t-10.5 124.5zM264 1698l138 273h190l136 -273h-98l-133 266l-133 -266h-100z" />
<glyph unicode="&#xdc;" horiz-adv-x="1007" d="M107 376v1156h135v-1187q0 -131 59.5 -195.5t201.5 -64.5q133 0 190 64.5t57 195.5v1187h135v-1156q0 -400 -382 -400q-92 0 -162 21.5t-114 57.5t-71.5 88t-38 108.5t-10.5 124.5zM243 1699v159h163v-159h-163zM584 1699v159h164v-159h-164z" />
<glyph unicode="&#xdd;" horiz-adv-x="790" d="M-2 1532h137q18 -64 52 -181t69.5 -237t69 -230.5t54.5 -182.5l21 -70q57 209 132 462.5t126 438.5h133l-324 -1057v-475h-135v475zM370 1698l110 355h144l-204 -355h-50z" />
<glyph unicode="&#xde;" horiz-adv-x="941" d="M130 0v1532h135v-231h240q80 0 142 -21.5t103 -59t68 -91t38 -112.5t11 -128q0 -70 -9.5 -129.5t-35 -118.5t-65 -99.5t-104.5 -66t-149 -25.5h-239v-450h-135zM265 559l255 -1q114 -1 163 78.5t49 249.5q0 159 -52.5 233t-159.5 74h-255v-634z" />
<glyph unicode="&#xdf;" horiz-adv-x="937" d="M122 0v1191q0 87 28 158t74.5 115t105 67t120.5 23t118.5 -24t102 -69t73 -117t27.5 -162q0 -62 -20.5 -125t-65.5 -117t-107 -79q66 -15 117.5 -53t80.5 -85t48 -106.5t25 -110t6 -103.5q0 -427 -513 -427v103q95 0 165 19t110 48t64 73.5t31.5 87t7.5 96.5 q0 67 -7 120.5t-26.5 105t-51.5 86t-84.5 55.5t-122.5 21h-93v104h95q54 0 93.5 23.5t61 64.5t31.5 89.5t10 106.5q0 132 -54 205.5t-128 73.5q-76 0 -131.5 -71.5t-55.5 -198.5v-1188h-135z" />
<glyph unicode="&#xe0;" horiz-adv-x="719" d="M67 213q0 28 1 45.5t5 45t11.5 46t22 46t36 48.5t53.5 48t74 51.5t98.5 52.5t124.5 56v9q0 91 -8 155.5t-19.5 99.5t-30 55t-34.5 24.5t-39 4.5q-24 0 -42.5 -6.5t-40 -25.5t-35.5 -62.5t-18 -108.5v-6h-139q11 140 82.5 219.5t188.5 79.5q65 0 114.5 -21t78.5 -53.5 t47 -77.5t24 -88t6 -92v-512q0 -56 4 -117.5t9 -94.5l3 -34h-124l-17 129q-43 -75 -105.5 -114t-119.5 -39q-83 0 -147 65.5t-64 171.5zM126 1590h144l110 -355h-50zM201 238q0 -77 32 -114t76 -37q51 0 103 36.5t81 93.5v376q-65 -46 -102.5 -73.5t-78.5 -64.5t-62 -67 t-35 -69t-14 -81z" />
<glyph unicode="&#xe1;" horiz-adv-x="719" d="M67 213q0 28 1 45.5t5 45t11.5 46t22 46t36 48.5t53.5 48t74 51.5t98.5 52.5t124.5 56v9q0 91 -8 155.5t-19.5 99.5t-30 55t-34.5 24.5t-39 4.5q-24 0 -42.5 -6.5t-40 -25.5t-35.5 -62.5t-18 -108.5v-6h-139q11 140 82.5 219.5t188.5 79.5q65 0 114.5 -21t78.5 -53.5 t47 -77.5t24 -88t6 -92v-512q0 -56 4 -117.5t9 -94.5l3 -34h-124l-17 129q-43 -75 -105.5 -114t-119.5 -39q-83 0 -147 65.5t-64 171.5zM201 238q0 -77 32 -114t76 -37q51 0 103 36.5t81 93.5v376q-65 -46 -102.5 -73.5t-78.5 -64.5t-62 -67t-35 -69t-14 -81zM331 1235 l110 355h144l-204 -355h-50z" />
<glyph unicode="&#xe2;" horiz-adv-x="719" d="M67 213q0 28 1 45.5t5 45t11.5 46t22 46t36 48.5t53.5 48t74 51.5t98.5 52.5t124.5 56v9q0 91 -8 155.5t-19.5 99.5t-30 55t-34.5 24.5t-39 4.5q-24 0 -42.5 -6.5t-40 -25.5t-35.5 -62.5t-18 -108.5v-6h-139q11 140 82.5 219.5t188.5 79.5q65 0 114.5 -21t78.5 -53.5 t47 -77.5t24 -88t6 -92v-512q0 -56 4 -117.5t9 -94.5l3 -34h-124l-17 129q-43 -75 -105.5 -114t-119.5 -39q-83 0 -147 65.5t-64 171.5zM123 1235l138 273h190l136 -273h-98l-133 266l-133 -266h-100zM201 238q0 -77 32 -114t76 -37q51 0 103 36.5t81 93.5v376 q-65 -46 -102.5 -73.5t-78.5 -64.5t-62 -67t-35 -69t-14 -81z" />
<glyph unicode="&#xe3;" horiz-adv-x="719" d="M67 213q0 28 1 45.5t5 45t11.5 46t22 46t36 48.5t53.5 48t74 51.5t98.5 52.5t124.5 56v9q0 91 -8 155.5t-19.5 99.5t-30 55t-34.5 24.5t-39 4.5q-24 0 -42.5 -6.5t-40 -25.5t-35.5 -62.5t-18 -108.5v-6h-139q11 140 82.5 219.5t188.5 79.5q65 0 114.5 -21t78.5 -53.5 t47 -77.5t24 -88t6 -92v-512q0 -56 4 -117.5t9 -94.5l3 -34h-124l-17 129q-43 -75 -105.5 -114t-119.5 -39q-83 0 -147 65.5t-64 171.5zM109 1246q1 17 3 33t12.5 42t27 44.5t48.5 32.5t75 14q25 0 84 -34t81 -34q26 0 40 13t19 47h103l-1 -12q-1 -12 -4 -26t-9 -32.5 t-18 -35t-28.5 -31t-43 -23.5t-60.5 -9t-92 34.5t-80 34.5q-25 0 -37.5 -12.5t-17.5 -45.5h-102zM201 238q0 -77 32 -114t76 -37q51 0 103 36.5t81 93.5v376q-65 -46 -102.5 -73.5t-78.5 -64.5t-62 -67t-35 -69t-14 -81z" />
<glyph unicode="&#xe4;" horiz-adv-x="719" d="M67 213q0 28 1 45.5t5 45t11.5 46t22 46t36 48.5t53.5 48t74 51.5t98.5 52.5t124.5 56v9q0 91 -8 155.5t-19.5 99.5t-30 55t-34.5 24.5t-39 4.5q-24 0 -42.5 -6.5t-40 -25.5t-35.5 -62.5t-18 -108.5v-6h-139q11 140 82.5 219.5t188.5 79.5q65 0 114.5 -21t78.5 -53.5 t47 -77.5t24 -88t6 -92v-512q0 -56 4 -117.5t9 -94.5l3 -34h-124l-17 129q-43 -75 -105.5 -114t-119.5 -39q-83 0 -147 65.5t-64 171.5zM103 1236v159h163v-159h-163zM201 238q0 -77 32 -114t76 -37q51 0 103 36.5t81 93.5v376q-65 -46 -102.5 -73.5t-78.5 -64.5t-62 -67 t-35 -69t-14 -81zM444 1236v159h164v-159h-164z" />
<glyph unicode="&#xe5;" horiz-adv-x="719" d="M67 213q0 28 1 45.5t5 45t11.5 46t22 46t36 48.5t53.5 48t74 51.5t98.5 52.5t124.5 56v9q0 91 -8 155.5t-19.5 99.5t-30 55t-34.5 24.5t-39 4.5q-24 0 -42.5 -6.5t-40 -25.5t-35.5 -62.5t-18 -108.5v-6h-139q11 140 82.5 219.5t188.5 79.5q65 0 114.5 -21t78.5 -53.5 t47 -77.5t24 -88t6 -92v-512q0 -56 4 -117.5t9 -94.5l3 -34h-124l-17 129q-43 -75 -105.5 -114t-119.5 -39q-83 0 -147 65.5t-64 171.5zM160 1429.5q0 78.5 50 136.5t145 58t145 -58t50 -136.5t-50 -136t-145 -57.5t-145 57.5t-50 136zM201 238q0 -77 32 -114t76 -37 q51 0 103 36.5t81 93.5v376q-65 -46 -102.5 -73.5t-78.5 -64.5t-62 -67t-35 -69t-14 -81zM230 1429.5q0 -52.5 30 -91.5t95 -39t95.5 39t30.5 91.5t-30.5 91.5t-95.5 39t-95 -39t-30 -91.5z" />
<glyph unicode="&#xe6;" horiz-adv-x="1116" d="M66 213q0 28 1 45t5 44t11.5 44.5t22 42.5t36 43t53.5 41.5t74 43t98.5 41t124.5 43.5v67q-1 89 -8.5 152.5t-19 97.5t-30 53.5t-34.5 24t-39 4.5t-41.5 -6t-39.5 -24.5t-35 -59t-19 -102.5q0 -3 -0.5 -8.5t-0.5 -8.5h-139q11 140 82.5 219.5t188.5 79.5q147 0 206 -136 q73 136 226 136q97 0 163 -65t66 -172q0 -52 -21.5 -96t-56 -74t-76 -54t-83 -38t-76 -23.5t-55.5 -12.5l-22 -3v-156q0 -127 20 -202.5t49.5 -101.5t75.5 -26q28 0 50 9.5t41 35t29.5 75t12.5 122.5v19h125l-2 -20q-5 -60 -14 -104.5t-28 -89t-45.5 -73t-70 -46.5 t-101.5 -18q-94 0 -155.5 55t-82.5 155q-17 -60 -49.5 -104t-70.5 -65t-72 -31t-63 -10q-83 0 -147 65.5t-64 171.5zM200 238q0 -74 27 -113t65 -39q52 0 92.5 40.5t63 99.5t33.5 114t11 95v87q-173 -63 -232.5 -119.5t-59.5 -164.5zM629 627q71 14 122.5 35.5t79.5 44 t44 52t20 52.5t4 52q0 58 -27.5 97.5t-76.5 39.5q-27 0 -49 -6t-38 -15t-28.5 -27.5t-21 -34t-14.5 -45.5t-8.5 -50.5t-4 -59t-2 -62.5t-0.5 -70v-3z" />
<glyph unicode="&#xe7;" horiz-adv-x="726" d="M94 506v55q0 71 1 109t6.5 103t15.5 101.5t31.5 84t52 72t77.5 42t107 17.5q62 0 108.5 -20t75.5 -52t47.5 -81t26.5 -98t12 -112q0 -2 0.5 -5t0.5 -5h-134v8q-5 151 -35 213t-102 62q-34 0 -59.5 -9.5t-43 -34.5t-28 -56.5t-17 -85.5t-8 -111t-1.5 -142v-55 q0 -251 31 -345.5t126 -94.5q71 0 100.5 64t36.5 220v9h135v-7q-3 -67 -10.5 -118.5t-25.5 -102t-47 -83t-77 -52.5t-112 -20q-53 0 -95.5 10.5t-72.5 35.5t-52 49.5t-35 70t-20.5 77.5t-11 91.5t-4 94t-0.5 101.5zM308 -310q131 0 131 59q0 28 -26 60.5t-66 59.5v119h57 v-102q126 -74 126 -145q0 -46 -59 -75t-163 -29v53z" />
<glyph unicode="&#xe8;" horiz-adv-x="737" d="M96 491v149q1 111 16 192.5t39.5 130.5t63.5 78t80 39t96 10q143 0 205.5 -101.5t62.5 -320.5q0 -66 -1 -109h-427v-163q0 -105 10 -172t32 -101t49 -45.5t68 -11.5q59 0 99.5 60t41.5 201h125q-5 -61 -14 -108t-28 -94.5t-47.5 -78.5t-73 -50.5t-101.5 -19.5 q-113 0 -176 45t-92.5 156.5t-27.5 313.5zM147 1590h144l110 -355h-50zM231 625h296q-1 35 0 71.5t-1 73.5t-5 71t-12 63t-22.5 50t-36.5 33.5t-53 12.5q-49 0 -80.5 -17.5t-49 -41.5t-25.5 -81t-9.5 -100.5t-1.5 -134.5z" />
<glyph unicode="&#xe9;" horiz-adv-x="737" d="M96 491v149q1 111 16 192.5t39.5 130.5t63.5 78t80 39t96 10q143 0 205.5 -101.5t62.5 -320.5q0 -66 -1 -109h-427v-163q0 -105 10 -172t32 -101t49 -45.5t68 -11.5q59 0 99.5 60t41.5 201h125q-5 -61 -14 -108t-28 -94.5t-47.5 -78.5t-73 -50.5t-101.5 -19.5 q-113 0 -176 45t-92.5 156.5t-27.5 313.5zM231 625h296q-1 35 0 71.5t-1 73.5t-5 71t-12 63t-22.5 50t-36.5 33.5t-53 12.5q-49 0 -80.5 -17.5t-49 -41.5t-25.5 -81t-9.5 -100.5t-1.5 -134.5zM350 1235l110 355h144l-204 -355h-50z" />
<glyph unicode="&#xea;" horiz-adv-x="737" d="M96 491v149q1 111 16 192.5t39.5 130.5t63.5 78t80 39t96 10q143 0 205.5 -101.5t62.5 -320.5q0 -66 -1 -109h-427v-163q0 -105 10 -172t32 -101t49 -45.5t68 -11.5q59 0 99.5 60t41.5 201h125q-5 -61 -14 -108t-28 -94.5t-47.5 -78.5t-73 -50.5t-101.5 -19.5 q-113 0 -176 45t-92.5 156.5t-27.5 313.5zM144 1235l138 273h190l136 -273h-98l-133 266l-133 -266h-100zM231 625h296q-1 35 0 71.5t-1 73.5t-5 71t-12 63t-22.5 50t-36.5 33.5t-53 12.5q-49 0 -80.5 -17.5t-49 -41.5t-25.5 -81t-9.5 -100.5t-1.5 -134.5z" />
<glyph unicode="&#xeb;" horiz-adv-x="737" d="M96 491v149q1 111 16 192.5t39.5 130.5t63.5 78t80 39t96 10q143 0 205.5 -101.5t62.5 -320.5q0 -66 -1 -109h-427v-163q0 -105 10 -172t32 -101t49 -45.5t68 -11.5q59 0 99.5 60t41.5 201h125q-5 -61 -14 -108t-28 -94.5t-47.5 -78.5t-73 -50.5t-101.5 -19.5 q-113 0 -176 45t-92.5 156.5t-27.5 313.5zM123 1236v159h163v-159h-163zM231 625h296q-1 35 0 71.5t-1 73.5t-5 71t-12 63t-22.5 50t-36.5 33.5t-53 12.5q-49 0 -80.5 -17.5t-49 -41.5t-25.5 -81t-9.5 -100.5t-1.5 -134.5zM464 1236v159h164v-159h-164z" />
<glyph unicode="&#xec;" horiz-adv-x="360" d="M-45 1590h144l110 -355h-50zM117 0v1066h134v-1066h-134z" />
<glyph unicode="&#xed;" horiz-adv-x="360" d="M117 0v1066h134v-1066h-134zM159 1235l110 355h144l-204 -355h-50z" />
<glyph unicode="&#xee;" horiz-adv-x="360" d="M-48 1235l138 273h190l136 -273h-98l-133 266l-133 -266h-100zM117 0v1066h134v-1066h-134z" />
<glyph unicode="&#xef;" horiz-adv-x="360" d="M-68 1236v159h163v-159h-163zM117 0v1066h134v-1066h-134zM273 1236v159h164v-159h-164z" />
<glyph unicode="&#xf0;" horiz-adv-x="780" d="M75 473v5q0 110 16 198.5t49 157t88 106.5t130 38q102 0 163 -40q-23 164 -61 271l-147 -33v84l114 26q-44 83 -109.5 116.5t-169.5 41.5l-13 109q149 -11 249 -67t162 -173l160 36v-84l-125 -29q93 -241 94 -760v-22q0 -235 -73 -356.5t-235 -121.5q-78 0 -135.5 37.5 t-91 106t-49.5 156.5t-16 197zM208 473q0 -146 19 -233t52.5 -121t87.5 -34q36 0 60.5 7.5t47.5 32t37 68t22 117.5t8 180q0 135 -13 339q-21 18 -72 29.5t-99 11.5q-50 0 -81.5 -34t-49.5 -120.5t-19 -230.5v-12z" />
<glyph unicode="&#xf1;" horiz-adv-x="765" d="M107 0v1066h133v-100q43 62 102.5 93t123.5 31q80 0 140 -66t60 -187v-837h-136v840q0 79 -31 115t-82 36q-41 0 -89 -28.5t-88 -78.5v-884h-133zM140 1246q1 17 3 33t12.5 42t27 44.5t48.5 32.5t75 14q25 0 84 -34t81 -34q26 0 40 13t19 47h103l-1 -12q-1 -12 -4 -26 t-9 -32.5t-18 -35t-28.5 -31t-43 -23.5t-60.5 -9t-92 34.5t-80 34.5q-25 0 -37.5 -12.5t-17.5 -45.5h-102z" />
<glyph unicode="&#xf2;" horiz-adv-x="752" d="M94 506v55q0 71 1 109t6 103t15 101.5t30.5 84t50.5 72t75.5 42t104 17.5t104 -17.5t75.5 -42t50.5 -72t30.5 -84t15 -101.5t6 -103t1 -109v-55q0 -60 -0.5 -90.5t-3 -84t-7.5 -83t-14.5 -73t-23.5 -67.5t-35 -53t-49 -44t-65.5 -25t-84 -10t-84 10t-65.5 25t-49 44 t-35 53t-24 67.5t-14.5 73t-7 83t-3 84t-0.5 90.5zM147 1590h144l110 -355h-50zM228 506q0 -251 29.5 -345.5t119 -94.5t119 94.5t29.5 345.5v55q0 84 -1.5 142t-7.5 111t-16 85t-26.5 56.5t-40.5 34.5t-56.5 10t-56.5 -10t-40.5 -34.5t-26.5 -56t-16 -85.5t-7.5 -111 t-1.5 -142v-55z" />
<glyph unicode="&#xf3;" horiz-adv-x="752" d="M94 506v55q0 71 1 109t6 103t15 101.5t30.5 84t50.5 72t75.5 42t104 17.5t104 -17.5t75.5 -42t50.5 -72t30.5 -84t15 -101.5t6 -103t1 -109v-55q0 -60 -0.5 -90.5t-3 -84t-7.5 -83t-14.5 -73t-23.5 -67.5t-35 -53t-49 -44t-65.5 -25t-84 -10t-84 10t-65.5 25t-49 44 t-35 53t-24 67.5t-14.5 73t-7 83t-3 84t-0.5 90.5zM228 506q0 -251 29.5 -345.5t119 -94.5t119 94.5t29.5 345.5v55q0 84 -1.5 142t-7.5 111t-16 85t-26.5 56.5t-40.5 34.5t-56.5 10t-56.5 -10t-40.5 -34.5t-26.5 -56t-16 -85.5t-7.5 -111t-1.5 -142v-55zM351 1235l110 355 h144l-204 -355h-50z" />
<glyph unicode="&#xf4;" horiz-adv-x="752" d="M94 506v55q0 71 1 109t6 103t15 101.5t30.5 84t50.5 72t75.5 42t104 17.5t104 -17.5t75.5 -42t50.5 -72t30.5 -84t15 -101.5t6 -103t1 -109v-55q0 -60 -0.5 -90.5t-3 -84t-7.5 -83t-14.5 -73t-23.5 -67.5t-35 -53t-49 -44t-65.5 -25t-84 -10t-84 10t-65.5 25t-49 44 t-35 53t-24 67.5t-14.5 73t-7 83t-3 84t-0.5 90.5zM145 1235l138 273h190l136 -273h-98l-133 266l-133 -266h-100zM228 506q0 -251 29.5 -345.5t119 -94.5t119 94.5t29.5 345.5v55q0 84 -1.5 142t-7.5 111t-16 85t-26.5 56.5t-40.5 34.5t-56.5 10t-56.5 -10t-40.5 -34.5 t-26.5 -56t-16 -85.5t-7.5 -111t-1.5 -142v-55z" />
<glyph unicode="&#xf5;" horiz-adv-x="752" d="M94 506v55q0 71 1 109t6 103t15 101.5t30.5 84t50.5 72t75.5 42t104 17.5t104 -17.5t75.5 -42t50.5 -72t30.5 -84t15 -101.5t6 -103t1 -109v-55q0 -60 -0.5 -90.5t-3 -84t-7.5 -83t-14.5 -73t-23.5 -67.5t-35 -53t-49 -44t-65.5 -25t-84 -10t-84 10t-65.5 25t-49 44 t-35 53t-24 67.5t-14.5 73t-7 83t-3 84t-0.5 90.5zM130 1246q1 17 3 33t12.5 42t27 44.5t48.5 32.5t75 14q25 0 84 -34t81 -34q26 0 40 13t19 47h103l-1 -12q-1 -12 -4 -26t-9 -32.5t-18 -35t-28.5 -31t-43 -23.5t-60.5 -9t-92 34.5t-80 34.5q-25 0 -37.5 -12.5t-17.5 -45.5 h-102zM228 506q0 -251 29.5 -345.5t119 -94.5t119 94.5t29.5 345.5v55q0 84 -1.5 142t-7.5 111t-16 85t-26.5 56.5t-40.5 34.5t-56.5 10t-56.5 -10t-40.5 -34.5t-26.5 -56t-16 -85.5t-7.5 -111t-1.5 -142v-55z" />
<glyph unicode="&#xf6;" horiz-adv-x="752" d="M94 506v55q0 71 1 109t6 103t15 101.5t30.5 84t50.5 72t75.5 42t104 17.5t104 -17.5t75.5 -42t50.5 -72t30.5 -84t15 -101.5t6 -103t1 -109v-55q0 -60 -0.5 -90.5t-3 -84t-7.5 -83t-14.5 -73t-23.5 -67.5t-35 -53t-49 -44t-65.5 -25t-84 -10t-84 10t-65.5 25t-49 44 t-35 53t-24 67.5t-14.5 73t-7 83t-3 84t-0.5 90.5zM124 1236v159h163v-159h-163zM228 506q0 -251 29.5 -345.5t119 -94.5t119 94.5t29.5 345.5v55q0 84 -1.5 142t-7.5 111t-16 85t-26.5 56.5t-40.5 34.5t-56.5 10t-56.5 -10t-40.5 -34.5t-26.5 -56t-16 -85.5t-7.5 -111 t-1.5 -142v-55zM465 1236v159h164v-159h-164z" />
<glyph unicode="&#xf7;" horiz-adv-x="599" d="M31 513v102h506v-102h-506zM202 207v160h164v-160h-164zM202 782v160h164v-160h-164z" />
<glyph unicode="&#xf8;" horiz-adv-x="756" d="M94 506v55q0 71 1 109t6 103t15 101.5t30.5 84t50.5 72t75.5 42t103.5 17.5q95 0 156 -42l87 270l43 -14l-92 -289q32 -36 51 -86t26.5 -119.5t9.5 -116.5t2 -132v-55q0 -60 -0.5 -90.5t-3 -84t-7.5 -83t-14.5 -73t-23.5 -67.5t-35 -53t-49 -44t-65.5 -25t-84.5 -10 q-76 0 -132 27l-74 -231l-43 14l78 242q-27 21 -46.5 51t-31 70.5t-19 75.5t-10.5 91.5t-3.5 90.5t-0.5 99zM228 506q0 -240 25 -330l238 746q-31 78 -115 78q-32 0 -56 -10t-40.5 -34.5t-26.5 -56t-16 -85.5t-7.5 -111t-1.5 -142v-55zM279 113q33 -47 97 -47 q90 0 119.5 94.5t29.5 345.5v55q0 190 -12 276z" />
<glyph unicode="&#xf9;" horiz-adv-x="793" d="M100 229v837h135v-840q0 -79 31 -115t82 -36q42 0 89.5 29t87.5 78v884h134v-1066h-134v101q-43 -63 -102.5 -94t-123.5 -31q-79 0 -139 66.5t-60 186.5zM150 1590h144l110 -355h-50z" />
<glyph unicode="&#xfa;" horiz-adv-x="793" d="M100 229v837h135v-840q0 -79 31 -115t82 -36q42 0 89.5 29t87.5 78v884h134v-1066h-134v101q-43 -63 -102.5 -94t-123.5 -31q-79 0 -139 66.5t-60 186.5zM354 1235l110 355h144l-204 -355h-50z" />
<glyph unicode="&#xfb;" horiz-adv-x="793" d="M100 229v837h135v-840q0 -79 31 -115t82 -36q42 0 89.5 29t87.5 78v884h134v-1066h-134v101q-43 -63 -102.5 -94t-123.5 -31q-79 0 -139 66.5t-60 186.5zM147 1235l138 273h190l136 -273h-98l-133 266l-133 -266h-100z" />
<glyph unicode="&#xfc;" horiz-adv-x="793" d="M100 229v837h135v-840q0 -79 31 -115t82 -36q42 0 89.5 29t87.5 78v884h134v-1066h-134v101q-43 -63 -102.5 -94t-123.5 -31q-79 0 -139 66.5t-60 186.5zM127 1236v159h163v-159h-163zM468 1236v159h164v-159h-164z" />
<glyph unicode="&#xfd;" horiz-adv-x="691" d="M33 1066h135l185 -891l182 891h135l-267 -1140q-27 -103 -106.5 -145.5t-225.5 -46.5h-2v109q106 7 155.5 35.5t49.5 80.5q0 65 -10 126zM326 1235l110 355h144l-204 -355h-50z" />
<glyph unicode="&#xfe;" horiz-adv-x="777" d="M107 -343v1875h133v-566q42 61 96 92.5t110 31.5q38 0 66.5 -7.5t62.5 -38t55 -84t36 -153t15 -237.5v-84q0 -96 -7.5 -173.5t-19.5 -129.5t-31 -91t-37.5 -60.5t-42.5 -34.5t-43.5 -17t-43.5 -4q-136 0 -216 125v-444h-133zM240 182q40 -48 87.5 -77.5t87.5 -29.5 q18 0 29 1.5t26.5 9.5t25.5 24t20.5 46t16.5 72.5t10 107.5t4 149v85q0 98 -4.5 170.5t-14.5 117.5t-20 73t-26.5 40.5t-29.5 16t-33 3.5q-83 0 -179 -105v-704z" />
<glyph unicode="&#xff;" horiz-adv-x="691" d="M33 1066h135l185 -891l182 891h135l-267 -1140q-27 -103 -106.5 -145.5t-225.5 -46.5h-2v109q106 7 155.5 35.5t49.5 80.5q0 65 -10 126zM99 1236v159h163v-159h-163zM440 1236v159h164v-159h-164z" />
<glyph unicode="&#x152;" horiz-adv-x="1334" d="M102 444v642q0 446 391 446h789v-109h-398v-580h285v-103h-285v-631h398v-109h-789q-391 0 -391 444zM238 414q0 -304 255 -306h255v1315h-255q-72 0 -123 -23t-79 -66.5t-40.5 -96.5t-12.5 -121v-702z" />
<glyph unicode="&#x153;" horiz-adv-x="1185" d="M96 506v55q0 71 1 109t6 103t15 101.5t30.5 84t50.5 72t75.5 42t103.5 17.5q150 0 217 -107q37 60 93 83.5t133 23.5q144 0 206.5 -101.5t62.5 -320.5q0 -66 -2 -109h-427v-163q0 -105 10.5 -172t32.5 -101t49 -45.5t68 -11.5q58 0 98.5 61t42.5 200h124 q-6 -60 -14.5 -107t-28 -95t-47.5 -79t-72 -50.5t-102 -19.5q-82 0 -137.5 23.5t-89.5 77.5q-67 -101 -217 -101q-46 0 -84 10t-65.5 25t-49 44t-35 53t-23.5 67.5t-15 73t-7 83t-2.5 84t-0.5 90.5zM230 506q0 -251 29 -345.5t119 -94.5t119.5 94.5t29.5 345.5v55 q0 84 -2 142t-7.5 111t-16 85t-27 56.5t-40 34.5t-56.5 10t-56.5 -10t-40.5 -34.5t-26.5 -56t-15.5 -85.5t-7.5 -111t-1.5 -142v-55zM662 625h296v50q0 30 -0.5 46t-1 45.5t-2.5 46t-5 42t-8 40.5t-11.5 34t-16.5 30t-22 21.5t-28.5 15t-34.5 4.5q-27 0 -49 -5.5t-38 -14 t-28.5 -26t-20.5 -33t-14 -43.5t-9 -50.5t-4.5 -61t-2 -66t-0.5 -75.5z" />
<glyph unicode="&#x178;" horiz-adv-x="790" d="M-2 1532h137q18 -64 52 -181t69.5 -237t69 -230.5t54.5 -182.5l21 -70q57 209 132 462.5t126 438.5h133l-324 -1057v-475h-135v475zM143 1699v159h163v-159h-163zM484 1699v159h164v-159h-164z" />
<glyph unicode="&#x2c6;" horiz-adv-x="634" d="M84 1253l138 273h190l136 -273h-98l-133 266l-133 -266h-100z" />
<glyph unicode="&#x2dc;" horiz-adv-x="671" d="M91 1225q1 17 3 33t12.5 42t27 44.5t48.5 32.5t75 14q25 0 84 -34t81 -34q26 0 40 13t19 47h103l-1 -12q-1 -12 -4 -26t-9 -32.5t-18 -35t-28.5 -31t-43 -23.5t-60.5 -9t-92 34.5t-80 34.5q-25 0 -37.5 -12.5t-17.5 -45.5h-102z" />
<glyph unicode="&#x2000;" horiz-adv-x="1026" />
<glyph unicode="&#x2001;" horiz-adv-x="2053" />
<glyph unicode="&#x2002;" horiz-adv-x="1026" />
<glyph unicode="&#x2003;" horiz-adv-x="2053" />
<glyph unicode="&#x2004;" horiz-adv-x="684" />
<glyph unicode="&#x2005;" horiz-adv-x="513" />
<glyph unicode="&#x2006;" horiz-adv-x="342" />
<glyph unicode="&#x2007;" horiz-adv-x="342" />
<glyph unicode="&#x2008;" horiz-adv-x="256" />
<glyph unicode="&#x2009;" horiz-adv-x="410" />
<glyph unicode="&#x200a;" horiz-adv-x="114" />
<glyph unicode="&#x2010;" horiz-adv-x="473" d="M104 399v102h279v-102h-279z" />
<glyph unicode="&#x2011;" horiz-adv-x="473" d="M104 399v102h279v-102h-279z" />
<glyph unicode="&#x2012;" horiz-adv-x="473" d="M104 399v102h279v-102h-279z" />
<glyph unicode="&#x2013;" horiz-adv-x="705" d="M104 399v102h511v-102h-511z" />
<glyph unicode="&#x2014;" horiz-adv-x="1062" d="M104 399v102h867v-102h-867z" />
<glyph unicode="&#x2018;" horiz-adv-x="358" d="M99 1167q0 216 22 296.5t99 90.5l24 -49q-31 -10 -52 -34.5t-29 -55t-10.5 -50t-2.5 -39.5h113v-159h-164z" />
<glyph unicode="&#x2019;" horiz-adv-x="349" d="M89 1372v160h165q0 -217 -22.5 -297.5t-98.5 -89.5l-24 48q31 10 52 34.5t29 55.5t10.5 50.5t2.5 38.5h-114z" />
<glyph unicode="&#x201a;" horiz-adv-x="358" d="M109 -12h150q-11 -66 -22 -134.5t-23 -139.5h-60z" />
<glyph unicode="&#x201c;" horiz-adv-x="621" d="M99 1167q0 216 22 296.5t99 90.5l24 -49q-31 -10 -52 -34.5t-29 -55t-10.5 -50t-2.5 -39.5h113v-159h-164zM360 1167q0 216 22.5 296.5t98.5 90.5l25 -49q-32 -10 -52.5 -34.5t-28.5 -55t-11 -50t-3 -39.5h114v-159h-165z" />
<glyph unicode="&#x201d;" horiz-adv-x="610" d="M89 1372v160h165q0 -217 -22.5 -297.5t-98.5 -89.5l-24 48q31 10 52 34.5t29 55.5t10.5 50.5t2.5 38.5h-114zM351 1372v160h164q0 -217 -22 -297.5t-99 -89.5l-24 48q31 10 52 34.5t29 55.5t11 50.5t3 38.5h-114z" />
<glyph unicode="&#x201e;" horiz-adv-x="645" d="M109 -12h150q-11 -65 -22 -133.5t-23 -139.5h-59zM397 -12h149q-10 -65 -21 -133.5t-23 -139.5h-60z" />
<glyph unicode="&#x2022;" horiz-adv-x="502" d="M93 683q0 72 44.5 117t117.5 45q75 0 118.5 -43t43.5 -119q0 -75 -43.5 -117.5t-118.5 -42.5q-74 0 -118 42.5t-44 117.5z" />
<glyph unicode="&#x202f;" horiz-adv-x="410" />
<glyph unicode="&#x2039;" horiz-adv-x="499" d="M69 513v114l346 402v-178l-246 -281l246 -282v-178z" />
<glyph unicode="&#x203a;" horiz-adv-x="499" d="M69 110v178l246 282l-246 281v178l346 -402v-114z" />
<glyph unicode="&#x205f;" horiz-adv-x="513" />
<glyph unicode="&#x20ac;" horiz-adv-x="975" d="M36 619v79h109v117h-109v79h109v192q0 467 389 467q360 0 360 -467v-62h-129v92q0 74 -11.5 131t-37 103t-71.5 70t-111 24q-72 0 -123 -24t-79 -70t-40 -103t-12 -131v-222h239v-79h-239v-117h239v-79h-239v-205q0 -74 12 -131t40 -103t79 -70.5t123 -24.5 q65 0 111 24.5t71.5 70.5t37 103t11.5 131v105h129v-75q0 -81 -10 -147.5t-35.5 -127.5t-65.5 -102.5t-103 -66t-146 -24.5q-89 0 -157 24.5t-111.5 66t-71 102.5t-38.5 127.5t-11 147.5v175h-109z" />
<glyph unicode="&#x2122;" horiz-adv-x="1245" d="M51 1214v68h379v-68h-146v-603h-88v603h-145zM575 611v671h145l132 -479l145 479h133v-671h-79v644l-179 -644h-42l-178 635v-635h-77z" />
<glyph unicode="&#xe000;" horiz-adv-x="1068" d="M0 0v1068h1068v-1068h-1068z" />
<glyph unicode="&#xfb01;" horiz-adv-x="838" d="M9 991v75h149v115v16v45.5t3.5 48.5t10 53t20.5 47.5t34.5 42t52.5 26t72 10.5q61 0 108 -11v-97q-21 5 -66 5q-29 0 -49.5 -9t-30.5 -19.5t-15.5 -32t-6 -35t-0.5 -37.5v-8v-160h438v-1066h-134v991h-304v-991h-133v991h-149zM595 1310v159h134v-159h-134z" />
<glyph unicode="&#xfb02;" horiz-adv-x="874" d="M9 991v75h149v151q0 78 19.5 129t61.5 78.5t95.5 37t133.5 9.5q77 0 146 -11t100 -22l31 -11v-1427h-134v1363q-114 9 -153 9q-93 0 -130 -28.5t-37 -117.5v-160h171v-75h-171v-991h-133v991h-149z" />
<glyph unicode="&#xfb03;" horiz-adv-x="1280" d="M9 991v75h149v115v16v45.5t3.5 48.5t10 53t20.5 47.5t34.5 42t52.5 26t72 10.5q61 0 108 -11v-97q-21 5 -66 5q-29 0 -49.5 -9t-30.5 -19.5t-15.5 -32t-6 -35t-0.5 -37.5v-8v-160h309v115v16v45.5t3.5 48.5t10 53t21 47.5t34.5 42t52 26t72 10.5q61 0 109 -11v-97 q-22 5 -66 5q-30 0 -50.5 -9t-30.5 -19.5t-15.5 -32t-6 -35t-0.5 -37.5v-8v-160h438v-1066h-133v991h-305v-991h-133v991h-309v-991h-133v991h-149zM1038 1310v159h133v-159h-133z" />
<glyph unicode="&#xfb04;" horiz-adv-x="1317" d="M9 991v75h149v115v16v45.5t3.5 48.5t10 53t20.5 47.5t34.5 42t52.5 26t72 10.5q61 0 108 -11v-97q-21 5 -66 5q-29 0 -49.5 -9t-30.5 -19.5t-15.5 -32t-6 -35t-0.5 -37.5v-8v-160h309v151q0 78 19.5 129t62 78.5t95.5 37t133 9.5q77 0 146 -11t100 -22l31 -11v-1427h-133 v1363q-115 9 -153 9q-94 0 -131 -28.5t-37 -117.5v-160h222v-75h-222v-991h-133v991h-309v-991h-133v991h-149z" />
</font>
</defs>
</svg>
