<?xml version="1.0" standalone="no"?>
<!DOCTYPE svg PUBLIC "-//W3C//DTD SVG 1.1//EN" "http://www.w3.org/Graphics/SVG/1.1/DTD/svg11.dtd" >
<svg xmlns="http://www.w3.org/2000/svg">
<metadata></metadata>
<defs>
<font id="nunitolight" horiz-adv-x="1250" >
<font-face units-per-em="2048" ascent="1638" descent="-410" />
<missing-glyph horiz-adv-x="624" />
<glyph horiz-adv-x="2048" />
<glyph horiz-adv-x="2048" />
<glyph unicode="&#xd;" horiz-adv-x="729" />
<glyph unicode=" "  horiz-adv-x="624" />
<glyph unicode="&#x09;" horiz-adv-x="624" />
<glyph unicode="&#xa0;" horiz-adv-x="624" />
<glyph unicode="!" horiz-adv-x="848" d="M303 98q0 18 7.5 35t22 31t36.5 22t50 8q29 0 50.5 -8t36 -22t22 -31t7.5 -35q0 -19 -7.5 -36.5t-22 -31t-36 -22t-50.5 -8.5q-28 0 -50 8.5t-36.5 22t-22 31t-7.5 36.5zM314 1498q0 42 29.5 64t69.5 22q39 0 68 -21t29 -65l-30 -1029q-2 -43 -22 -64.5t-47 -21.5 q-25 0 -46.5 21.5t-22.5 64.5z" />
<glyph unicode="&#x22;" horiz-adv-x="677" d="M105 1507v6q0 34 27 52.5t61 18.5q33 0 59.5 -18t26.5 -53v-6l-29 -374q-2 -34 -20 -51.5t-38 -17.5q-21 0 -38.5 17.5t-19.5 51.5zM391 1507v6q0 34 27 52.5t60 18.5t60 -18t27 -53v-6l-29 -374q-2 -34 -20 -51.5t-39 -17.5t-38 17.5t-20 51.5z" />
<glyph unicode="#" d="M77 561q0 26 17 47.5t53 21.5h176l43 293h-159q-35 0 -52.5 22t-17.5 49t17 48.5t53 21.5h179l63 433q6 33 29 49t48 16q28 0 50 -17.5t22 -51.5v-8q0 -3 -1 -7l-62 -414h284l63 433q5 33 28 49t49 16q28 0 49.5 -17.5t21.5 -51.5v-8q0 -3 -1 -7l-62 -414h136 q34 0 52 -22t18 -49t-17.5 -48.5t-52.5 -21.5h-156l-43 -293h138q34 0 52.5 -22t18.5 -48t-18 -47.5t-53 -21.5h-159l-71 -480q-5 -33 -27 -49.5t-47 -16.5q-26 0 -48 18.5t-22 52.5v6q0 5 1 9l66 460h-283l-72 -480q-6 -33 -27.5 -49.5t-46.5 -16.5q-27 0 -49 18.5 t-22 52.5v6q0 5 1 9l68 460h-157q-35 0 -52.5 22t-17.5 48zM472 630h283l43 293h-283z" />
<glyph unicode="$" horiz-adv-x="1363" d="M97 1110q0 88 38 159.5t102.5 122t149.5 80.5t180 38v132q0 29 18 44t41 15q21 0 39.5 -14.5t18.5 -44.5v-132q87 -5 180.5 -19.5t171.5 -44.5q31 -10 45.5 -31.5t14.5 -44.5q0 -27 -18.5 -48t-49.5 -21q-14 0 -26 4q-42 10 -88.5 19.5t-93.5 17t-93 12t-87 4.5 q-59 0 -120.5 -13.5t-112.5 -40.5t-83 -70.5t-32 -102.5q0 -77 38.5 -128.5t101 -87t143.5 -62t164.5 -52.5t164 -57.5t143.5 -79t101.5 -114.5t38.5 -166q0 -95 -41 -170.5t-110 -129.5t-160.5 -86t-191.5 -41v-145q0 -29 -19.5 -44t-41.5 -15t-39 14t-17 45v144 q-53 1 -106 9t-102 19t-91.5 23t-75.5 24q-34 12 -48.5 33.5t-14.5 43.5q0 28 18 49t49 21q14 0 27 -5q42 -13 82 -25t84.5 -21.5t100.5 -15t131 -5.5q69 0 135.5 16.5t118 49t83 81.5t31.5 113q0 46 -15.5 82.5t-43 64.5t-65.5 50.5t-82 41.5q-74 30 -153.5 54t-155.5 49 t-144.5 56.5t-120 77.5t-82 111t-30.5 157z" />
<glyph unicode="%" horiz-adv-x="2204" d="M239 1091q0 84 24 158.5t70 130.5t112 88.5t151 32.5q91 0 158.5 -34.5t112.5 -92.5t67 -132t22 -151q0 -83 -25 -157.5t-71 -130.5t-112.5 -88.5t-151.5 -32.5q-86 0 -152 32t-111.5 87.5t-69.5 130.5t-24 159zM383 1091q0 -54 11.5 -108t36.5 -96.5t65.5 -68.5 t99.5 -26q60 0 100.5 26t66 68.5t36.5 96.5t11 108q0 55 -11 108.5t-36.5 96t-66 68.5t-100.5 26q-59 0 -99.5 -26t-65.5 -68.5t-36.5 -96t-11.5 -108.5zM579 -18q0 13 8 28l846 1487q13 21 29 31t31 10q23 0 40 -18t17 -43q0 -19 -9 -36l-847 -1486q-9 -17 -22.5 -24 t-28.5 -7q-25 0 -44.5 16.5t-19.5 41.5zM1249 378q0 83 24.5 157t70.5 130t112.5 88.5t150.5 32.5q91 0 158.5 -34.5t112 -92t66.5 -131t22 -150.5q0 -84 -24.5 -158t-70.5 -130.5t-112.5 -89.5t-151.5 -33t-152 32.5t-112.5 88.5t-69.5 130.5t-24 159.5zM1394 378 q0 -55 11 -109t36 -96t65.5 -68.5t100.5 -26.5q59 0 100 26.5t66 68.5t36 96t11 109q0 54 -11 107.5t-36 96t-66 68.5t-100 26q-60 0 -100.5 -26t-65.5 -68.5t-36 -96t-11 -107.5z" />
<glyph unicode="&#x26;" horiz-adv-x="1618" d="M111 434q0 91 35.5 162t91.5 127.5t126.5 105t141.5 97.5q-38 41 -76 86t-68.5 94t-49.5 101.5t-19 110.5q0 75 32 131t85 92.5t120 55t138 18.5q69 0 137 -17.5t122 -52.5t87.5 -89.5t33.5 -129.5q0 -69 -25 -127.5t-66 -109.5t-93.5 -95.5t-107.5 -85.5l437 -464 q25 52 44 115t32.5 128t21.5 130.5t9 125.5q3 37 26.5 54t51.5 17q16 0 31 -5t27.5 -15.5t20 -25t7.5 -33.5v-7q0 -4 -1 -7q-6 -55 -14 -128.5t-25 -152.5t-45 -160t-70 -153l170 -184q12 -14 17 -28t5 -29q0 -19 -7.5 -35.5t-19.5 -29t-29 -20t-34 -7.5q-16 0 -32 6.5 t-31 23.5l-159 175q-98 -110 -215.5 -170t-271.5 -60q-121 0 -228.5 31.5t-188 91t-127.5 146t-47 196.5zM302 461q0 -81 32.5 -144.5t86.5 -108t124.5 -67.5t146.5 -23q62 0 116 13t102 37.5t91.5 59t86.5 78.5l-472 505q-39 -25 -93 -64t-103.5 -86.5t-83.5 -99.5 t-34 -100zM480 1316q0 -39 15.5 -80.5t40.5 -81t55 -75.5t57 -65q35 32 72.5 65.5t69 70t52 77.5t20.5 89q0 39 -16 67.5t-42.5 48t-60.5 28.5t-69 9q-37 0 -72 -8.5t-62 -26.5t-43.5 -47t-16.5 -71z" />
<glyph unicode="'" horiz-adv-x="624" d="M225 1507v6q0 34 27 52.5t62 18.5q33 0 59.5 -18t26.5 -53v-6l-30 -374q-3 -34 -20 -51.5t-39 -17.5q-20 0 -37 17.5t-19 51.5z" />
<glyph unicode="(" horiz-adv-x="633" d="M166 677q0 112 18 222.5t48.5 219.5t70.5 216.5t84 212.5q11 26 29 38t38 12q25 0 46 -18.5t21 -47.5q0 -6 -1 -13t-4 -15q-77 -208 -121 -417t-44 -409q0 -199 43.5 -406t120.5 -415q5 -12 5 -29q0 -28 -20.5 -45.5t-45.5 -17.5q-20 0 -37.5 11t-29.5 38 q-44 104 -84 210.5t-70.5 214.5t-48.5 217.5t-18 220.5z" />
<glyph unicode=")" horiz-adv-x="633" d="M113 1532q0 28 21.5 46t47.5 18q19 0 36.5 -11t29.5 -37q44 -105 84 -212.5t70.5 -216.5t49 -219.5t18.5 -222.5q0 -111 -18.5 -220.5t-49 -217.5t-70.5 -214.5t-84 -210.5q-12 -27 -30 -38t-37 -11q-26 0 -46.5 17.5t-20.5 45.5q0 13 7 29q77 208 120.5 415t43.5 406 q0 200 -44 408.5t-121 417.5q-7 14 -7 28z" />
<glyph unicode="*" horiz-adv-x="1182" d="M153 1162q0 29 20 47.5t48 18.5l258 -9l-134 218q-10 16 -10 34q0 25 18.5 46t48.5 21q19 0 35 -9t25 -26l128 -231l127 231q22 35 60 35q30 0 48.5 -21t18.5 -47q0 -19 -8 -33l-136 -218l261 9q29 0 48.5 -18.5t19.5 -47.5q0 -27 -19.5 -46t-48.5 -19l-263 9l134 -218 q10 -18 10 -35q0 -24 -18 -44t-49 -20q-19 0 -35 8.5t-24 24.5l-126 226l-126 -226q-8 -16 -24.5 -24t-35.5 -9q-16 0 -28 5.5t-20.5 15.5t-13.5 21t-5 22q0 17 10 35l136 218l-262 -9q-27 0 -47.5 19t-20.5 46z" />
<glyph unicode="+" horiz-adv-x="1433" d="M168 531q0 31 22 51t53 20h399v387q0 31 21.5 51.5t53.5 20.5q30 0 52 -20.5t22 -51.5v-387h400q31 0 53 -20t22 -51q0 -29 -22 -50.5t-53 -21.5h-400v-383q0 -30 -22 -51t-52 -21q-32 0 -53.5 20.5t-21.5 51.5v383h-399q-31 0 -53 21.5t-22 50.5z" />
<glyph unicode="," horiz-adv-x="624" d="M119 -257l99 455h211l-163 -455h-147z" />
<glyph unicode="-" horiz-adv-x="637" d="M32 563q0 33 22.5 55t56.5 22h417q33 0 55.5 -22t22.5 -55q0 -31 -22.5 -52.5t-55.5 -21.5h-417q-33 0 -56 21.5t-23 52.5z" />
<glyph unicode="." horiz-adv-x="624" d="M197 104q0 19 7.5 37.5t22.5 33t36.5 24t48.5 9.5t48.5 -9.5t36.5 -24t22.5 -33t7.5 -37.5q0 -21 -7.5 -39.5t-22.5 -33t-36.5 -23.5t-48.5 -9t-48.5 9t-36.5 23.5t-22.5 33t-7.5 39.5z" />
<glyph unicode="/" horiz-adv-x="629" d="M-21 -118q0 11 5 29l517 1566q8 27 29 40t45 13q28 0 52 -18t24 -51q0 -12 -6 -30l-521 -1565q-10 -28 -29.5 -40.5t-42.5 -12.5q-27 0 -50 18t-23 51z" />
<glyph unicode="0" d="M100 754q0 114 9.5 208t32.5 179t62 158t97.5 126.5t138.5 83.5t185 30q106 0 185.5 -30t138 -83.5t97.5 -126.5t62 -158t32.5 -179t9.5 -208q0 -106 -9.5 -200t-32.5 -179t-62 -158.5t-97.5 -126.5t-138 -83.5t-185.5 -30.5t-185.5 30.5t-138 83.5t-97.5 126.5 t-62 158.5t-32.5 179t-9.5 200zM297 754q0 -68 4 -137t15 -137.5t33 -131.5t58.5 -112t90 -78.5t127.5 -29.5q75 0 128.5 29.5t90 78.5t58 112t33.5 131.5t15.5 137.5t3.5 137q0 77 -3.5 145.5t-15.5 136.5t-33.5 132t-58 112.5t-90 77.5t-128.5 29t-128 -29t-89.5 -77.5 t-58.5 -112.5t-33 -132t-15 -136.5t-4 -145.5z" />
<glyph unicode="1" d="M243 1228q0 15 7.5 29t24.5 26l360 228q11 7 25 10.5t28 4.5q34 0 62 -22.5t28 -69.5v-1345q0 -23 -8 -39.5t-21.5 -27.5t-30.5 -16.5t-35 -5.5q-17 0 -34 5.5t-30 16.5t-21 27.5t-8 39.5v1234l-238 -155q-18 -11 -37 -11q-30 0 -51 22t-21 49z" />
<glyph unicode="2" d="M113 96q0 32 18.5 67.5t53.5 67.5q54 48 134 132.5t158 163.5t154 165.5t136.5 170t97.5 161t37 139.5q0 55 -23 95.5t-61 68.5t-87 41.5t-102 13.5q-39 0 -78.5 -8t-75.5 -20.5t-69.5 -28t-59.5 -31.5q-30 -17 -58 -17q-31 0 -51.5 18.5t-20.5 46.5q0 22 20 45.5 t53 45.5t76.5 41.5t91 34t96 22.5t91.5 8q91 0 173 -23t144 -68.5t99 -113t37 -156.5q0 -82 -36.5 -171t-97 -179t-138 -180.5t-160.5 -172.5t-173 -171.5t-157 -148.5h685q37 0 56 -24.5t19 -54.5q0 -29 -19 -52.5t-56 -23.5h-777q-68 0 -99 28t-31 68z" />
<glyph unicode="3" d="M182 1388q0 21 12.5 40t37.5 30q80 37 169 59t192 22q101 0 192.5 -25.5t161 -76.5t110.5 -129.5t41 -185.5q0 -68 -23 -123t-63 -98.5t-93.5 -72.5t-113.5 -42v-4q70 -15 129 -48.5t101 -83.5t65.5 -114t23.5 -140q0 -111 -43 -191t-113.5 -130.5t-162 -74.5t-190.5 -24 q-35 0 -79 5t-90.5 14.5t-91 23.5t-78.5 31.5t-55.5 39t-21.5 46.5q0 29 21.5 52.5t55.5 23.5q14 0 27 -4q25 -12 60 -25t75.5 -23t85.5 -17t92 -7q71 0 128.5 16.5t98 49.5t62.5 81t22 111q0 75 -28.5 132t-76 96.5t-111 60t-131.5 20.5h-80q-36 0 -54 22.5t-18 50.5t18 51 t54 24l64 1q65 1 126 17t108.5 49t76 82.5t28.5 119.5q0 62 -24.5 110.5t-66 81.5t-96 49.5t-114.5 16.5q-56 0 -112 -11t-102.5 -24.5t-80.5 -25t-47 -11.5q-35 0 -56.5 25.5t-21.5 56.5z" />
<glyph unicode="4" d="M41 440q0 16 4 33.5t16 33.5l600 932q28 46 67.5 66.5t84.5 20.5q26 0 50 -7.5t42.5 -23.5t29.5 -41.5t11 -59.5v-915h165q35 0 52.5 -22t17.5 -48q0 -27 -17.5 -49t-52.5 -22h-166v-252q0 -22 -8 -38t-21 -26.5t-29 -16t-33 -5.5t-33.5 5.5t-29.5 16t-21.5 26.5t-8.5 38 v252h-618q-47 0 -74.5 30.5t-27.5 71.5zM204 479h557v872z" />
<glyph unicode="5" d="M151 295q0 35 20.5 54t46.5 19q20 0 39.5 -11.5t34.5 -38.5q19 -48 52 -84.5t75.5 -60t93 -35.5t105.5 -12q85 0 147.5 28.5t104 78t61.5 116.5t20 147q0 78 -19.5 139.5t-58 107.5t-94.5 72.5t-126 26.5q-58 0 -104.5 -14.5t-82.5 -37t-61 -49t-40 -51.5 q-17 -31 -43 -46t-51 -15q-30 0 -52.5 21t-22.5 62v730q0 38 22 61t67 23h714q38 0 56 -23.5t18 -51.5q0 -29 -18 -52.5t-56 -23.5h-652l-2 -537q66 72 151.5 111.5t188.5 39.5q106 0 191.5 -39t145.5 -106t92.5 -157t32.5 -198q0 -113 -37 -206.5t-104 -161t-161 -106.5 t-208 -39q-83 0 -157 16.5t-136.5 49.5t-109 84t-71.5 120q-6 15 -9 26.5t-3 22.5z" />
<glyph unicode="6" d="M95 701q0 98 9 198.5t33.5 194t67.5 174t112 141t166 95.5t230 35q88 0 171 -20t155 -57q18 -9 26 -24.5t8 -32.5q0 -15 -5 -30t-15 -27t-22.5 -19.5t-27.5 -7.5q-9 0 -19 4q-71 27 -138.5 43.5t-124.5 16.5q-95 0 -163.5 -27.5t-116.5 -73.5t-77.5 -107.5t-45.5 -130.5 t-22 -141.5t-6 -140.5q57 114 160 170.5t235 56.5q111 0 199 -36t148 -100t92.5 -153t32.5 -206q0 -124 -34.5 -216t-99 -159t-157.5 -106t-210 -39q-107 0 -190 26.5t-145.5 73.5t-105.5 112.5t-69.5 142.5t-38.5 178t-12 192zM316 478q0 -84 24 -145t67 -106.5t102 -73 t130 -27.5q78 0 139 26t102.5 71.5t63 108.5t21.5 155q0 81 -17 146t-54 114t-93.5 78.5t-137.5 29.5q-84 0 -149 -28t-109 -77t-66.5 -116t-22.5 -156z" />
<glyph unicode="7" d="M110 1448q0 29 19.5 53.5t58.5 24.5h819q58 0 84.5 -28t26.5 -68q0 -37 -17 -74l-553 -1304q-12 -27 -35.5 -39.5t-48.5 -12.5q-19 0 -37 6.5t-32.5 18t-23.5 28.5t-9 36q0 17 9 38l545 1244h-728q-39 0 -58.5 24t-19.5 53z" />
<glyph unicode="8" d="M91 403q0 70 23 129.5t66 106t104 88.5t135 57v5q-66 7 -121.5 42.5t-96.5 80.5t-64 103t-23 123q0 102 43 177t114 124.5t163 74.5t191 25t192 -25t163.5 -74.5t113 -124.5t42.5 -177q0 -67 -23 -122.5t-63 -98.5t-95.5 -79t-120.5 -49v-3q153 -42 239.5 -140t86.5 -243 q0 -103 -44 -184.5t-118 -135t-170.5 -80.5t-202.5 -27t-203 27t-170 80.5t-117 135t-44 184.5zM286 410q0 -71 28 -125.5t75.5 -90t108.5 -52t127 -16.5t127.5 16.5t108.5 52t75 90t28 125.5q0 75 -28 129t-75 89t-108.5 58.5t-127.5 23.5t-127 -23.5t-108.5 -58.5 t-75.5 -89t-28 -129zM299 1135q0 -65 24.5 -113.5t67.5 -81.5t103 -49t131 -16q72 0 131.5 16t103 49t68 81.5t24.5 113.5q0 71 -28 120.5t-75 81.5t-105.5 46.5t-118.5 14.5t-118.5 -14.5t-104.5 -46.5t-74.5 -81.5t-28.5 -120.5z" />
<glyph unicode="9" d="M95 1036q0 107 34.5 199t99 159.5t157 106t209.5 38.5q107 0 190.5 -26.5t146 -73.5t105.5 -112t69.5 -142.5t38.5 -164.5t12 -178q0 -104 -9.5 -196t-33.5 -191.5t-67 -186.5t-112 -152t-166 -102.5t-230 -37.5q-89 0 -172 20t-155 58q-18 8 -26 23.5t-8 33.5 q0 16 5 31.5t15 28t22.5 20t27.5 7.5q9 0 18 -3q77 -30 149.5 -45t131.5 -15q90 0 155.5 27.5t111.5 76t75 113.5t45 140t22 141t6 146h-2h-2q-26 -57 -66.5 -99.5t-91 -70.5t-110.5 -42t-124 -14q-111 0 -199 35.5t-148.5 99.5t-92 153t-31.5 195zM287 1045q0 -70 17 -135 t53.5 -114t93 -78.5t136.5 -29.5q85 0 149.5 28t109 77t67 116t22.5 145q0 67 -24 128t-67 106.5t-102 73t-130 27.5q-79 0 -139.5 -25.5t-101.5 -71t-62.5 -109t-21.5 -138.5z" />
<glyph unicode=":" horiz-adv-x="624" d="M197 104q0 19 7.5 37.5t22.5 33t36.5 24t48.5 9.5t48.5 -9.5t36.5 -24t22.5 -33t7.5 -37.5q0 -21 -7.5 -39.5t-22.5 -33t-36.5 -23.5t-48.5 -9t-48.5 9t-36.5 23.5t-22.5 33t-7.5 39.5zM197 965q0 20 7.5 39t22.5 33.5t36.5 23.5t48.5 9t48.5 -9t36.5 -23.5t22.5 -33.5 t7.5 -39t-7.5 -39t-22.5 -33.5t-36.5 -23t-48.5 -8.5t-48.5 8.5t-36.5 23t-22.5 33.5t-7.5 39z" />
<glyph unicode=";" horiz-adv-x="624" d="M156 -257l100 455h211l-163 -455h-148zM225 989q0 19 7.5 37.5t22 33t35.5 23t49 8.5t49.5 -8.5t36.5 -23t22.5 -33t7.5 -37.5q0 -21 -7.5 -40t-22.5 -33.5t-36.5 -23.5t-49.5 -9t-49 9t-35.5 23.5t-22 33.5t-7.5 40z" />
<glyph unicode="&#x3c;" horiz-adv-x="1433" d="M148 530q0 23 16 46t50 38l949 405q13 4 27 4q32 0 52.5 -22.5t20.5 -49.5q0 -18 -10.5 -34t-33.5 -26l-857 -361l860 -382q22 -11 32 -26.5t10 -33.5q0 -27 -19.5 -49t-49.5 -22q-14 0 -30 7l-954 424q-33 15 -48 37t-15 45z" />
<glyph unicode="=" horiz-adv-x="1433" d="M168 320q0 31 22 52t53 21h948q31 0 52.5 -21t21.5 -52q0 -29 -21.5 -50t-52.5 -21h-948q-31 0 -53 21t-22 50zM168 740q0 31 22 52t53 21h948q31 0 52.5 -21t21.5 -52q0 -28 -21.5 -49.5t-52.5 -21.5h-948q-31 0 -53 21.5t-22 49.5z" />
<glyph unicode="&#x3e;" horiz-adv-x="1433" d="M169 972q0 26 19 48t48 22q15 0 32 -6l954 -425q33 -15 48 -37.5t15 -43.5q0 -25 -16 -47.5t-50 -37.5l-949 -404q-16 -6 -28 -6q-32 0 -52 22.5t-20 50.5q0 18 10 34t33 26l858 362l-860 382q-22 9 -32 25t-10 35z" />
<glyph unicode="?" horiz-adv-x="1104" d="M153 1503q0 25 15.5 48t50.5 32q74 19 151.5 26t151.5 7q88 0 165.5 -23.5t136.5 -73t93 -124t34 -175.5q0 -69 -17.5 -123t-48 -100.5t-71 -88.5t-85.5 -85q-52 -54 -89.5 -88t-61.5 -61t-35 -52t-12 -61v-16q0 -12 0.5 -33.5t0.5 -55.5q0 -38 -26 -57t-57 -19 q-37 0 -54.5 15.5t-24 45t-5.5 72.5t1 98q2 53 32 100t74 91t94 88t93.5 92.5t72.5 103.5t29 121q0 72 -24 119.5t-63 76t-90 40t-105 11.5q-15 0 -42.5 -1.5t-61.5 -5t-70 -8.5t-67 -13q-11 -2 -17 -2q-31 0 -49.5 24.5t-18.5 54.5zM339 94q0 19 7.5 38t22 33.5t36 23 t49.5 8.5t49 -8.5t36 -23t22.5 -33.5t7.5 -38q0 -20 -7.5 -39.5t-22.5 -34t-36 -23.5t-49 -9t-49.5 9t-36 23.5t-22 34t-7.5 39.5z" />
<glyph unicode="@" horiz-adv-x="1752" d="M62 792q0 132 36.5 244.5t99.5 204.5t149 162t185 118t206.5 72.5t214.5 24.5q137 0 264 -41.5t225 -126t156.5 -213t58.5 -305.5q0 -87 -21 -167t-58 -150t-86.5 -128t-105 -99t-115 -64t-115.5 -23q-29 0 -57.5 7t-53.5 20t-44 34.5t-28 50.5q-51 -52 -122.5 -81 t-143.5 -29q-71 0 -128.5 26t-97 71.5t-60.5 106t-21 129.5q0 72 17 147.5t50 147t79.5 134.5t106 110t129.5 74.5t149 27.5q38 0 74.5 -9.5t69 -27t59 -43.5t43.5 -62l10 32q8 28 31.5 42t48.5 14q26 0 46 -15t20 -44q0 -14 -4 -27l-176 -540q-11 -34 -18 -64t-7 -53 q0 -25 12.5 -39.5t47.5 -14.5q63 0 122.5 45.5t105 118t73 162.5t27.5 179q0 145 -46 252t-123.5 177t-178.5 103.5t-211 33.5q-89 0 -179.5 -21.5t-174 -63t-156.5 -103t-126 -141.5t-84.5 -177.5t-31.5 -211.5q0 -172 55 -301.5t147.5 -216.5t215.5 -130t260 -43t280 44 q13 4 28 4q28 0 42 -17t14 -39q0 -17 -9.5 -32t-28.5 -20q-179 -55 -346 -55q-171 0 -317.5 56t-254 161t-168.5 257t-61 345zM576 646q0 -39 11 -76t33 -65t53 -45t71 -17q39 0 82 12.5t81.5 37t69 61t46.5 84.5l87 265q9 30 9 58q0 39 -17.5 71t-44 53.5t-58.5 33.5 t-61 12q-54 0 -102 -22.5t-88.5 -60.5t-72.5 -87.5t-54 -104t-33.5 -109t-11.5 -101.5z" />
<glyph unicode="A" horiz-adv-x="1489" d="M51 83q0 14 7 33l509 1243q20 53 40.5 86.5t41.5 51t44 23.5t50 6q26 0 49 -6t44.5 -24t41.5 -51t41 -86l512 -1243q5 -19 5 -30q0 -20 -8.5 -36t-23 -27t-32.5 -17t-37 -6q-25 0 -47.5 13.5t-32.5 43.5l-137 342h-756l-136 -342q-11 -31 -32.5 -44t-45.5 -13 q-19 0 -36 6t-30.5 17t-22 26.5t-8.5 33.5zM415 544h650l-323 825h-3z" />
<glyph unicode="B" horiz-adv-x="1481" d="M209 91v1344q0 19 7.5 35.5t20 29t30 19.5t36.5 7h491q102 0 188 -27.5t147 -77t96 -120.5t35 -158q0 -63 -22 -119.5t-61.5 -102t-93.5 -77.5t-117 -46v-4q80 -13 146.5 -44.5t113 -80t72.5 -114t26 -145.5q0 -76 -26.5 -149.5t-89 -131t-162.5 -93.5t-232 -36h-511 q-19 0 -36.5 7t-30 19.5t-20 29t-7.5 35.5zM396 148h322q97 0 173 12.5t128 45.5t79.5 88t27.5 139q0 91 -36.5 147.5t-101 87.5t-153 41t-194.5 10h-245v-571zM396 857h317q67 0 130.5 14t113 45.5t79 82t29.5 123.5q0 79 -30.5 128.5t-81 78t-114.5 39t-132 10.5h-311 v-521z" />
<glyph unicode="C" horiz-adv-x="1481" d="M126 753q0 152 42.5 297t128.5 253.5t216.5 172t307.5 63.5q109 0 205 -23.5t179 -61.5q24 -12 35.5 -33t11.5 -43q0 -30 -18 -53.5t-50 -23.5q-12 0 -24 4q-85 31 -170 49.5t-155 18.5q-97 0 -171 -26t-130.5 -70t-95.5 -104.5t-63.5 -130.5t-35.5 -144.5t-11 -142.5 q0 -65 11 -139.5t35.5 -144.5t63.5 -130.5t95.5 -104.5t130.5 -70t171 -26q36 0 79.5 6t89.5 18.5t92.5 30.5t90.5 44q9 5 19.5 7t18.5 2q28 0 46 -20.5t18 -48.5q0 -31 -22.5 -58t-59.5 -49.5t-86 -40t-100.5 -30t-103 -19t-94.5 -6.5q-179 0 -310 63t-217 171t-128 252 t-42 291z" />
<glyph unicode="D" horiz-adv-x="1598" d="M190 92v1342q0 19 7.5 35.5t20.5 29t30.5 20t37.5 7.5h363q200 0 352 -49.5t256 -146t157 -240t53 -330.5q0 -188 -54.5 -329.5t-159 -237.5t-255.5 -144.5t-344 -48.5h-368q-20 0 -37.5 7.5t-30.5 20t-20.5 29t-7.5 35.5zM380 150h294q157 0 269 42.5t183 122.5 t104.5 193.5t33.5 253.5q0 158 -43.5 274t-126 191.5t-201.5 112t-270 36.5h-243v-1226z" />
<glyph unicode="E" horiz-adv-x="1342" d="M213 92v1342q0 17 6.5 33.5t18.5 29.5t28 21t36 8h798q40 0 59 -24t19 -53q0 -30 -19 -54t-59 -24h-700v-509h666q40 0 59.5 -24t19.5 -53t-20 -53t-59 -24h-666v-553h730q40 0 59 -24t19 -53q0 -30 -19 -54t-59 -24h-823q-18 0 -34.5 7.5t-30 20.5t-21.5 29.5t-8 34.5z " />
<glyph unicode="F" horiz-adv-x="1230" d="M199 90v1345q0 41 27 66t63 25h754q40 0 59 -24t19 -53q0 -30 -19 -54t-59 -24h-654v-499h626q40 0 60 -24t20 -53q0 -30 -20 -54t-60 -24h-626v-627q0 -23 -8 -40t-21.5 -28t-31 -16.5t-34.5 -5.5q-36 0 -65.5 22.5t-29.5 67.5z" />
<glyph unicode="G" horiz-adv-x="1602" d="M132 762q0 89 20 190t61.5 189t103.5 161.5t146 126t189.5 81.5t233.5 29q117 0 226 -20t201 -58q22 -10 32 -27.5t10 -37.5q0 -29 -19 -53.5t-50 -24.5h-8q-5 0 -9 2q-47 13 -96 23.5t-98.5 18t-95.5 11.5t-86 4q-150 0 -256.5 -51t-174 -138t-98 -203t-30.5 -226 q0 -138 29.5 -256.5t95 -201t172 -126t261.5 -43.5q85 0 170 12.5t163 34.5v464h-303q-35 0 -53 22t-18 50t17.5 49.5t53.5 21.5h412q38 0 58.5 -21t20.5 -59v-558q0 -40 -20 -63.5t-50 -30.5q-118 -37 -241 -57.5t-230 -20.5q-165 0 -301.5 47t-233.5 144.5t-151 247.5 t-54 347z" />
<glyph unicode="H" horiz-adv-x="1598" d="M207 90v1346q0 22 8 39t21.5 28t31 17t35.5 6q35 0 64.5 -22.5t29.5 -67.5v-565h805v565q0 22 8 39t21 28t30.5 17t35.5 6q36 0 65.5 -22.5t29.5 -67.5v-1346q0 -23 -8 -40t-22 -28t-31 -16.5t-35 -5.5q-36 0 -65 22.5t-29 67.5v623h-805v-623q0 -23 -8 -40t-22 -28 t-31 -16.5t-35 -5.5q-36 0 -65 22.5t-29 67.5z" />
<glyph unicode="I" horiz-adv-x="633" d="M223 90v1345q0 22 8 39.5t21.5 28.5t31 17t35.5 6q35 0 64.5 -22.5t29.5 -68.5v-1345q0 -23 -8 -40t-22 -28t-31 -16.5t-35 -5.5q-36 0 -65 22.5t-29 67.5z" />
<glyph unicode="J" horiz-adv-x="1132" d="M63 302q0 35 24 55.5t53 20.5q20 0 38.5 -10.5t30.5 -33.5q34 -98 99 -151.5t169 -53.5q134 0 207.5 86t73.5 273v949q0 22 8 39t21.5 28t31 16.5t35.5 5.5t35 -5.5t30.5 -16.5t21.5 -28t8 -39v-965q0 -136 -40 -230t-106 -153t-151 -86t-175 -27q-66 0 -128.5 19 t-116 54.5t-95 87t-63.5 119.5q-11 24 -11 46z" />
<glyph unicode="K" horiz-adv-x="1379" d="M220 89v1347q0 45 29.5 67.5t65.5 22.5q17 0 33.5 -6t30 -17t21.5 -28t8 -39v-583l644 640q15 18 33 25.5t36 7.5q35 0 60.5 -22.5t25.5 -55.5q0 -27 -21 -55l-578 -559l637 -685q24 -30 24 -59q0 -18 -8 -34.5t-22 -29t-31 -19.5t-36 -7q-20 0 -39 9t-35 28l-690 747 v-695q0 -23 -8 -39.5t-22 -27.5t-31 -16.5t-35 -5.5q-17 0 -33.5 5.5t-29.5 16.5t-21 27.5t-8 39.5z" />
<glyph unicode="L" horiz-adv-x="1230" d="M209 93v1343q0 22 8 39t22 28t31 17t35 6q35 0 64.5 -22.5t29.5 -67.5v-1280h692q41 0 60.5 -24t19.5 -54q0 -29 -20 -53.5t-60 -24.5h-786q-19 0 -37 7t-30.5 20t-20.5 30t-8 36z" />
<glyph unicode="M" horiz-adv-x="2092" d="M208 85v1275q0 43 11.5 74.5t32 52t47.5 30t58 9.5q34 0 60 -7t48.5 -25t42.5 -50t41 -80l495 -1118h6l506 1120q20 49 39 80t39.5 48.5t46 24.5t58.5 7q31 0 58 -9.5t47.5 -30t32.5 -52t12 -74.5v-1275q0 -42 -28 -63.5t-61 -21.5q-32 0 -59 21t-27 64v1256l-553 -1223 q-17 -41 -48.5 -62t-67.5 -21q-34 0 -64 20t-48 63l-551 1214v-1247q0 -42 -28 -63.5t-61 -21.5q-32 0 -58.5 21t-26.5 64z" />
<glyph unicode="N" horiz-adv-x="1607" d="M193 85v1315q0 30 10 53.5t26.5 39.5t38.5 24.5t46 8.5q31 0 60 -15t53 -47l810 -1221v1197q0 22 7.5 38t20.5 26.5t29 16t33 5.5q16 0 32 -5.5t29 -16t20.5 -26.5t7.5 -38v-1314q0 -30 -11 -53.5t-29 -39.5t-41 -24.5t-49 -8.5q-31 0 -62 15t-54 47l-798 1204v-1181 q0 -22 -8 -37.5t-20.5 -26t-28.5 -16t-34 -5.5q-34 0 -61 21t-27 64z" />
<glyph unicode="O" horiz-adv-x="1708" d="M137 758q0 163 47 309.5t138 251.5t225.5 162.5t307.5 57.5t307 -57.5t224.5 -162.5t137.5 -251.5t47 -309.5q0 -164 -47 -310.5t-137.5 -251t-224.5 -162.5t-307 -58t-307.5 58t-225.5 162.5t-138 251t-47 310.5zM341 758q0 -112 29 -228t91 -204t159.5 -141t234.5 -53 q136 0 233.5 53t160 141t91.5 204t29 228q0 110 -29 226t-91.5 205t-160 142t-233.5 53q-137 0 -234.5 -53t-159.5 -142t-91 -205t-29 -226z" />
<glyph unicode="P" horiz-adv-x="1367" d="M209 90v1343q0 19 7.5 36t20 29.5t30.5 20t38 7.5h384q76 0 150.5 -8.5t142 -29t124.5 -53.5t99.5 -82t66.5 -114.5t24 -140.5q0 -77 -24 -143t-67 -115t-101.5 -82t-127 -53t-143.5 -28.5t-152 -8.5h-282v-578q0 -23 -8 -40t-22 -28t-31 -16.5t-34 -5.5 q-36 0 -65.5 22.5t-29.5 67.5zM399 817h316q77 0 146.5 13.5t122 47t83 89.5t30.5 131q0 74 -30.5 129.5t-82.5 88.5t-120.5 46.5t-145.5 13.5h-319v-559z" />
<glyph unicode="Q" horiz-adv-x="1708" d="M137 751q0 170 47 316.5t138 251.5t225.5 162.5t307.5 57.5t306.5 -57.5t224.5 -161.5t137.5 -250.5t46.5 -316.5q0 -82 -19 -170.5t-52.5 -165.5t-82.5 -142.5t-107 -122.5h241q39 0 58 -23.5t19 -51.5q0 -30 -19 -53t-58 -24h-502q-56 -12 -100.5 -18t-92.5 -6 q-173 0 -307.5 56t-225.5 160t-138 251t-47 308zM341 751q0 -109 29 -225t91 -204.5t159.5 -141.5t234.5 -53q136 0 233.5 53t160 141.5t91.5 204.5t29 225q0 117 -29 233t-91.5 205t-160 142t-233.5 53q-137 0 -234.5 -53t-159.5 -142t-91 -205t-29 -233z" />
<glyph unicode="R" horiz-adv-x="1481" d="M214 90v1344q0 19 7.5 35.5t20.5 29t30.5 20t36.5 7.5h458q99 0 195.5 -16.5t173.5 -60.5t125 -121t48 -198q0 -126 -81.5 -213.5t-231.5 -120.5v-4q77 -12 127 -40.5t80 -71t44.5 -99.5t22.5 -125q9 -84 15 -151t11 -115q4 -54 7 -97q0 -46 -29 -69.5t-67 -23.5 q-34 0 -64 21.5t-34 65.5q-13 130 -21 228.5t-19.5 167t-30 112.5t-53 69t-88 34.5t-133.5 9.5h-361v-618q0 -23 -8 -40t-21.5 -28t-31 -16.5t-34.5 -5.5q-35 0 -64.5 22.5t-29.5 67.5zM403 857h281q48 0 98 2t98 10.5t89.5 26t73 46t50 71.5t18.5 104q0 60 -16 103 t-43 71.5t-63 45.5t-76 25.5t-81 11t-80 2.5h-349v-519z" />
<glyph unicode="S" horiz-adv-x="1363" d="M129 220q0 15 6 30.5t15.5 28t21.5 20.5t24 8q19 0 39 -14t39 -28q34 -24 74.5 -48t90.5 -43t109.5 -30t130.5 -11q79 0 146 16t116.5 48t78 80t28.5 103q0 76 -37.5 128.5t-98.5 87.5t-139.5 60.5t-159.5 50.5q-89 29 -172 64.5t-146.5 85.5t-101.5 120.5t-38 160.5 q0 89 44 165.5t117 129t169 79.5t200 27q159 0 285 -50.5t223 -154.5q9 -9 11.5 -21t2.5 -26q0 -12 -4 -25.5t-13 -25t-23 -19t-33 -7.5q-31 0 -69 39q-35 25 -73 49.5t-82.5 42t-96 28t-111.5 10.5t-122.5 -14t-113.5 -42.5t-83 -74.5t-32 -99q0 -68 37.5 -118.5t99 -85.5 t139.5 -60.5t161 -50.5q90 -29 173 -62.5t146.5 -83t100.5 -121t37 -175.5q0 -89 -43 -169t-120 -135t-182 -83.5t-227 -28.5q-88 0 -166 15.5t-144.5 43t-121 64t-95.5 79.5q-9 8 -13 19.5t-4 22.5z" />
<glyph unicode="T" horiz-adv-x="1239" d="M29 1448q0 30 19.5 54t59.5 24h1022q41 0 60.5 -24t19.5 -54q0 -29 -20 -53.5t-60 -24.5h-412v-1279q0 -23 -8 -40t-22 -28t-31 -17t-34 -6q-37 0 -66 23t-29 68v1279h-420q-40 0 -59.5 24.5t-19.5 53.5z" />
<glyph unicode="U" horiz-adv-x="1594" d="M202 531v904q0 22 8 39.5t21.5 28.5t31 17t36.5 6q35 0 64.5 -22.5t29.5 -68.5v-900q0 -104 34.5 -179.5t91.5 -125t129.5 -73.5t148.5 -24t149 24t130 73.5t92 125t35 179.5v900q0 22 8 39.5t21 28.5t31 17t36 6q35 0 64.5 -22.5t29.5 -68.5v-904q0 -142 -49.5 -245.5 t-132.5 -172.5t-190.5 -103t-223.5 -34q-115 0 -222.5 34t-190 103t-132.5 172.5t-50 245.5z" />
<glyph unicode="V" horiz-adv-x="1379" d="M46 1438q0 19 8.5 35t22.5 28.5t31.5 19t35.5 6.5q28 0 51 -15.5t34 -45.5l465 -1302h4l458 1298q11 31 34.5 47.5t51.5 16.5q17 0 33 -6t28.5 -16.5t20 -25.5t7.5 -32q0 -8 -1 -14.5t-4 -14.5l-480 -1303q-21 -64 -61.5 -89t-95.5 -25q-50 0 -89.5 24t-63.5 90 l-485 1296q-3 7 -4 14.5t-1 13.5z" />
<glyph unicode="W" horiz-adv-x="2198" d="M42 1435q0 20 9.5 36.5t24.5 28.5t33.5 19t37.5 7q25 0 45.5 -14t28.5 -45l334 -1303l408 1251q15 55 53 83t82 28t82.5 -28t55.5 -83l424 -1250l330 1297q9 34 31 49t48 15q17 0 34 -6t30 -16.5t21 -25.5t8 -34q0 -5 -1 -11.5t-3 -12.5l-351 -1299q-8 -30 -23.5 -53 t-36 -38t-44.5 -22.5t-50 -7.5q-50 0 -94 30t-62 91l-401 1221l-392 -1222q-17 -58 -64 -89t-100 -31q-49 0 -90 29t-58 91l-346 1290q-4 12 -4 25z" />
<glyph unicode="X" horiz-adv-x="1363" d="M73 81q0 25 17 48l476 656l-444 609q-15 19 -15 43q0 18 9 34t23.5 28.5t33.5 19.5t38 7q22 0 43 -10.5t37 -33.5l402 -579l417 579q17 23 36.5 33.5t41.5 10.5q17 0 32.5 -6.5t27 -16.5t18.5 -24.5t7 -30.5q0 -12 -3.5 -23.5t-12.5 -22.5l-459 -617l471 -650 q15 -22 15 -44q0 -18 -9 -34.5t-23.5 -29t-32.5 -20t-38 -7.5q-45 0 -76 43l-433 618l-434 -617q-17 -24 -36.5 -34t-39.5 -10q-18 0 -34 6.5t-28 17.5t-19.5 26t-7.5 31z" />
<glyph unicode="Y" horiz-adv-x="1367" d="M80 1438q0 18 9 34t24.5 28t34.5 19t38 7q24 0 45.5 -11.5t34.5 -35.5l432 -681h2l432 682q14 24 34.5 35t42.5 11q16 0 32 -5.5t28.5 -15t20 -23t7.5 -29.5q-1 -10 -4 -20t-9 -21l-503 -763v-558q0 -23 -8 -40t-22 -28t-31 -17t-35 -6q-37 0 -66 23t-29 68v553l-497 754 q-6 10 -9 20t-4 20z" />
<glyph unicode="Z" horiz-adv-x="1246" d="M76 96q0 37 21 68l840 1207h-774q-39 0 -58.5 24t-19.5 54q0 29 19 53t59 24h913q45 0 71.5 -25t26.5 -64q0 -17 -6 -36.5t-20 -38.5l-843 -1207h780q40 0 59.5 -24t19.5 -53q0 -30 -19.5 -54t-59.5 -24h-893q-32 0 -53 8t-35.5 21.5t-21 31t-6.5 35.5z" />
<glyph unicode="[" horiz-adv-x="653" d="M185 -128v1568q0 36 25 61t63 25h196q34 0 50 -20.5t16 -44.5q0 -25 -16.5 -46t-49.5 -21h-109v-1475h109q34 0 50.5 -20.5t16.5 -45.5q0 -24 -17 -45.5t-50 -21.5h-196q-38 0 -63 25t-25 61z" />
<glyph unicode="\" horiz-adv-x="629" d="M-21 1534q0 34 23.5 52t52.5 18q22 0 43.5 -13t29.5 -41l517 -1565q4 -14 4 -29q0 -33 -22 -51t-50 -18q-23 0 -43 12.5t-29 40.5l-521 1565q-5 19 -5 29z" />
<glyph unicode="]" horiz-adv-x="653" d="M117 -147q0 25 16.5 45.5t49.5 20.5h110v1475h-110q-33 0 -49.5 21t-16.5 46q0 24 16 44.5t50 20.5h197q36 0 62 -25t26 -61v-1568q0 -36 -26 -61t-62 -25h-197q-33 0 -49.5 21.5t-16.5 45.5z" />
<glyph unicode="^" horiz-adv-x="1433" d="M200 595q0 14 7 30l418 809q15 29 39 44t51 15q28 0 52 -15t39 -44l416 -809q6 -16 6 -29q0 -15 -6 -28t-17 -22t-25 -14.5t-28 -5.5q-20 0 -37 11t-29 34l-371 750l-374 -750q-10 -24 -28.5 -34.5t-37.5 -10.5q-28 0 -51.5 19t-23.5 50z" />
<glyph unicode="_" horiz-adv-x="1095" d="M-1 -209q0 25 15 45t45 20h974q31 0 46.5 -20t15.5 -45q0 -23 -15.5 -43t-46.5 -20h-974q-30 0 -45 20t-15 43z" />
<glyph unicode="`" horiz-adv-x="608" d="M63 1510q0 17 8.5 33.5t22 30t31 22t35.5 8.5q15 0 28.5 -6t26.5 -21l288 -322q7 -8 10 -17t3 -17q0 -17 -11 -29t-29 -12q-21 0 -44 18l-344 265q-13 9 -18.5 21.5t-6.5 25.5z" />
<glyph unicode="a" horiz-adv-x="1116" d="M75 295q0 99 43.5 166t121.5 108t187.5 59t242.5 18q28 0 59.5 -1t61.5 -2v93q0 61 -18 103t-50 66.5t-77 35t-99 10.5q-55 0 -98 -6t-79.5 -19.5t-68 -29t-63.5 -35.5q-19 -10 -38 -10q-27 0 -45 18t-18 43q0 24 21 45q67 64 167.5 95.5t226.5 31.5q93 0 167.5 -21 t127.5 -65.5t81.5 -113t28.5 -164.5l-1 -644q0 -37 -26.5 -56.5t-57.5 -19.5q-30 0 -55 17.5t-25 55.5v98q-23 -47 -59.5 -83.5t-83.5 -61t-101 -37.5t-108 -13q-77 0 -143.5 21t-115.5 62.5t-77.5 100.5t-28.5 135zM248 300q0 -50 18.5 -84.5t49.5 -58t73 -35.5t89 -13 q63 1 119 21.5t97.5 58t66.5 96t29 140.5v93q-38 -2 -84 -2h-22q-7 0 -15 1q-51 1 -105 -3q-60 -4 -116.5 -14.5t-101 -34t-71.5 -63.5t-27 -102z" />
<glyph unicode="b" horiz-adv-x="1237" d="M148 80v1367q0 38 27 58t59 20t58.5 -19.5t26.5 -58.5v-559q29 50 71 87t92 61t105 36t110 12q117 0 202 -45.5t140 -121.5t81 -175t26 -207q0 -103 -25.5 -203.5t-79 -179t-137.5 -127.5t-201 -49q-120 0 -219.5 50t-171.5 159v-109q-2 -37 -27.5 -56.5t-55.5 -19.5 q-31 0 -56 20t-25 60zM319 550q0 -91 17 -171t57 -139.5t107 -95t168 -35.5q60 0 104.5 19t78 51.5t55.5 75t34.5 90.5t18 98.5t5.5 100.5q0 74 -16 148t-52.5 131.5t-97 92.5t-147.5 35q-91 0 -154.5 -32.5t-103 -87.5t-57 -128.5t-17.5 -152.5z" />
<glyph unicode="c" horiz-adv-x="1038" d="M96 531q0 112 34 212t98.5 176t159 120.5t214.5 44.5q51 0 108 -9.5t105 -28t80 -44t32 -57.5q0 -25 -16 -44t-44 -19q-13 0 -29 6q-107 62 -221 62q-76 0 -138.5 -29.5t-107.5 -83.5t-69.5 -130.5t-24.5 -173.5q0 -77 16.5 -151.5t55.5 -137t106 -99t161 -36.5 q59 0 118 18.5t124 51.5q16 6 30 6q26 0 41.5 -18t15.5 -43q0 -32 -35.5 -60t-88 -46.5t-114.5 -30t-114 -11.5q-122 0 -214.5 44t-155.5 120t-95 177t-32 214z" />
<glyph unicode="d" horiz-adv-x="1243" d="M97 535q0 108 26 207t80.5 175t139.5 121.5t204 45.5q54 0 109.5 -12t105 -36t92 -60.5t70.5 -86.5v558q0 39 26.5 58.5t58.5 19.5t59.5 -20t27.5 -58v-1367q0 -40 -26.5 -60t-58.5 -20q-16 0 -31 5t-27 15t-19.5 24.5t-9.5 33.5v48q0 20 -1 34v17q-73 -107 -168.5 -154 t-214.5 -47q-116 0 -200 48.5t-137.5 127.5t-79.5 179.5t-26 203.5zM278 544q0 -43 5.5 -96.5t19 -102t35.5 -91t55 -75t78 -51.5t105 -19q100 0 166.5 35.5t106 95.5t55.5 140t16 170q0 79 -17 151.5t-55.5 128.5t-101 88.5t-153.5 32.5q-89 0 -149 -35t-97 -93.5 t-53 -131.5t-16 -147z" />
<glyph unicode="e" horiz-adv-x="1211" d="M101 531q0 110 32.5 210t96.5 176.5t159 121.5t219 45q129 0 224 -39.5t156.5 -109t92 -165t33.5 -207.5q0 -25 -15.5 -43.5t-53.5 -18.5h-765q4 -103 30 -175t78 -120.5t114.5 -72.5t136.5 -24q78 0 158 28.5t160 82.5q11 9 22.5 12t20.5 3q25 0 40 -16t15 -38 q0 -12 -5.5 -25.5t-18.5 -24.5q-43 -42 -93 -71.5t-102.5 -47.5t-106 -27t-104.5 -9q-108 0 -204 38t-167 110t-112 175t-41 232zM285 614h661q-5 75 -28 137t-65 107t-102.5 69t-140.5 24q-70 0 -127.5 -26.5t-99.5 -73t-67.5 -107.5t-30.5 -130z" />
<glyph unicode="f" horiz-adv-x="744" d="M46 998q0 24 17 43t51 19h145v119q0 104 18.5 175t53.5 114.5t84.5 62.5t110.5 19q41 0 85 -7.5t88 -18.5q22 -7 32.5 -23.5t10.5 -34.5q0 -24 -15 -43t-43 -19q-18 0 -32.5 2t-28 4t-27.5 4.5t-30 2.5q-45 0 -71.5 -15.5t-41 -52.5t-19 -99t-4.5 -155v-35h184 q34 0 51.5 -19t17.5 -43t-17.5 -43.5t-51.5 -19.5h-184v-850q0 -42 -26.5 -63.5t-60.5 -21.5q-16 0 -31 5.5t-26.5 15.5t-19 26t-7.5 38v850h-145q-34 0 -51 20t-17 43z" />
<glyph unicode="g" horiz-adv-x="1243" d="M94 525q0 114 27.5 215.5t83.5 177.5t141.5 121t202.5 45q60 0 115 -10.5t103.5 -36t91 -66t75.5 -99.5v117q2 35 26.5 53t53.5 18q31 0 56 -19.5t25 -59.5v-1003q0 -113 -36 -193.5t-102 -132.5t-158.5 -76t-206.5 -24q-73 0 -131.5 8.5t-104.5 25t-81.5 40t-64.5 54.5 q-22 21 -22 47q0 25 19 43.5t47 18.5q17 0 36 -9q30 -18 60 -33.5t64.5 -27.5t76 -19t93.5 -7q77 0 140.5 13.5t108.5 45t70 83.5t25 130v244q-30 -58 -71 -96.5t-88 -63t-99.5 -37t-104.5 -12.5q-124 0 -213 43.5t-146 115.5t-84.5 165.5t-27.5 200.5zM279 532 q0 -108 26.5 -184t70 -126t101 -74.5t118.5 -24.5q63 0 123 25.5t106.5 76.5t74.5 128t28 175q0 78 -17 154t-56 135.5t-103 96t-158 36.5q-89 0 -149.5 -31.5t-97 -87t-52 -132.5t-15.5 -167z" />
<glyph unicode="h" horiz-adv-x="1239" d="M166 81v1366q0 38 27 58t60 20q32 0 58 -19.5t26 -58.5v-564q21 49 58.5 86.5t85.5 63t102.5 38.5t109.5 13q77 0 145.5 -22.5t121 -71t83 -125.5t30.5 -188v-596q0 -40 -27 -60.5t-59 -20.5q-33 0 -59 20.5t-26 60.5v609q0 66 -20.5 116.5t-54.5 82.5t-78 47t-92 15 q-66 0 -124 -20t-102 -62t-69 -104t-25 -150v-534q0 -40 -27.5 -60.5t-59.5 -20.5t-58 20.5t-26 60.5z" />
<glyph unicode="i" horiz-adv-x="507" d="M137 1430q0 39 30.5 68.5t86.5 29.5q54 0 84.5 -29.5t30.5 -68.5q0 -40 -30.5 -69.5t-85.5 -29.5t-85.5 29.5t-30.5 69.5zM168 87v888q0 43 27.5 64t59.5 21q16 0 31 -5t26.5 -16t19 -27t7.5 -37v-888q0 -43 -27.5 -65t-60.5 -22q-32 0 -57.5 21t-25.5 66z" />
<glyph unicode="j" horiz-adv-x="509" d="M-50 -328q0 21 14.5 40t42.5 19q56 0 88.5 5.5t49.5 25t21 57.5t4 104v1052q0 43 27.5 64t60.5 21q16 0 31 -5t26.5 -16t19 -27t7.5 -37v-1010q0 -100 -7.5 -169.5t-36 -113t-86 -62.5t-156.5 -19q-8 0 -18 1t-19.5 3.5t-16 5.5t-6.5 6q-24 2 -35 18.5t-11 36.5z M140 1430q0 39 30.5 68.5t85.5 29.5q54 0 85 -29.5t31 -68.5q0 -40 -31 -69.5t-85 -29.5q-55 0 -85.5 29.5t-30.5 69.5z" />
<glyph unicode="k" horiz-adv-x="1061" d="M178 87v1352q0 43 27 64.5t59 21.5q16 0 31 -5.5t27 -16t19.5 -26.5t7.5 -38v-809l483 406q25 24 55 24t52.5 -20t22.5 -48q0 -12 -5.5 -24t-17.5 -23l-411 -344l466 -481q10 -11 13.5 -22t3.5 -22q0 -15 -7 -29t-18.5 -24.5t-26.5 -16.5t-30 -6q-28 0 -56 28l-524 543 v-484q0 -43 -27.5 -65t-60.5 -22q-31 0 -57 21t-26 66z" />
<glyph unicode="l" horiz-adv-x="507" d="M168 87v1352q0 43 27.5 64.5t59.5 21.5q16 0 31 -5.5t26.5 -16t19 -26.5t7.5 -38v-1352q0 -43 -27.5 -65t-60.5 -22q-32 0 -57.5 21t-25.5 66z" />
<glyph unicode="m" horiz-adv-x="1968" d="M165 80v902q0 39 27 58.5t59 19.5q17 0 31.5 -4.5t26.5 -13.5t20 -23t8 -34v-101q21 49 58 86.5t85 62.5t102.5 38t109.5 13q58 0 112 -12.5t100 -39.5t82 -70t57 -104q40 68 85.5 111t94.5 69t101 36t104 10q76 0 144.5 -22.5t120.5 -71t82.5 -126.5t30.5 -187v-597 q0 -40 -27 -60t-60 -20q-32 0 -58 20t-26 60v607q0 69 -20.5 119.5t-54 82.5t-78 47t-91.5 15q-60 0 -117 -17.5t-102 -56t-73 -101.5t-28 -156v-539q0 -40 -27.5 -60.5t-59.5 -20.5t-58 20.5t-26 60.5v606q0 69 -20.5 119.5t-54 82.5t-78 47t-91.5 15q-66 0 -124 -20 t-101.5 -62t-68.5 -104t-25 -149v-536q0 -40 -27.5 -60t-60.5 -20q-32 0 -58 20t-26 60z" />
<glyph unicode="n" horiz-adv-x="1239" d="M166 81v900q0 39 27 58.5t60 19.5q57 -1 75 -43q12 -28 12 -77q0 -25 -3 -55q21 48 58.5 83t85.5 61.5t102.5 41t109.5 14.5q77 0 145.5 -23.5t121 -74t83 -128.5t30.5 -188v-589q0 -40 -27 -60.5t-59 -20.5q-33 0 -59 20.5t-26 60.5v603q0 69 -20.5 118.5t-54.5 83 t-78 49.5t-92 16q-66 0 -124 -21.5t-102 -60t-69 -102.5t-25 -151v-535q0 -40 -27.5 -60.5t-59.5 -20.5t-58 20.5t-26 60.5z" />
<glyph unicode="o" horiz-adv-x="1243" d="M92 531q0 98 32 199t97.5 180t165 126.5t234.5 47.5q134 0 234.5 -47.5t165.5 -126.5t97 -180t32 -199q0 -101 -32 -201.5t-97 -179t-165.5 -126.5t-234.5 -48q-135 0 -234.5 48t-165 126.5t-97.5 179t-32 201.5zM275 531q0 -69 19.5 -145t61 -137.5t107.5 -100.5 t158 -39q93 0 158.5 39t107 100.5t60.5 137.5t19 145q0 66 -19 142.5t-60.5 138t-107 100.5t-158.5 39q-92 0 -158 -39t-107.5 -100.5t-61 -138t-19.5 -142.5z" />
<glyph unicode="p" horiz-adv-x="1243" d="M148 -326v1307q0 40 26 59t58 19q58 0 76 -43q13 -30 13 -83q0 -23 -2 -50q29 51 70 89t91 63t106.5 37t116.5 12q117 0 201 -47.5t137.5 -126t79 -179t25.5 -206.5q0 -107 -27 -206.5t-82 -175.5t-140 -121.5t-200 -45.5q-55 0 -109.5 12.5t-104 37t-91.5 62.5t-73 87 v-501q0 -40 -27 -60t-59 -20t-58.5 20t-26.5 60zM320 526q0 -81 18.5 -155.5t59 -132.5t104.5 -93.5t154 -35.5q60 0 106.5 17t80.5 47.5t57 71.5t37.5 88t20.5 102t6 97q0 71 -14 145.5t-48.5 135t-93.5 99t-149 39.5q-100 0 -165.5 -33t-104 -90.5t-54 -134.5t-15.5 -167z " />
<glyph unicode="q" horiz-adv-x="1243" d="M96 525q0 106 26 206.5t79.5 179t137.5 126t200 47.5q59 0 117 -12t109 -37t93 -63t71 -89q0 32 0.5 51t0.5 51q2 38 27.5 56.5t55.5 18.5q31 0 56.5 -19.5t25.5 -59.5v-1305q0 -40 -27.5 -59.5t-59.5 -19.5t-58.5 19t-26.5 60v499q-31 -49 -73 -87t-91.5 -62.5t-104 -37 t-108.5 -12.5q-116 0 -201 45.5t-140 121.5t-82 175.5t-27 206.5zM277 532q0 -74 14.5 -150.5t50 -136.5t94.5 -98t149 -38q91 0 155 35.5t104.5 92t59 133.5t18.5 156q0 90 -15.5 167t-54 134.5t-103.5 90t-166 33.5q-90 -1 -148.5 -39.5t-93.5 -99t-49.5 -135 t-14.5 -145.5z" />
<glyph unicode="r" horiz-adv-x="758" d="M166 79v900q0 39 26 60t65 21q37 0 58.5 -21t21.5 -60v-95q16 46 40.5 83.5t60 63t83 39.5t109.5 14q42 0 64 -23.5t22 -51.5q0 -27 -21.5 -50t-66.5 -23q-69 0 -123.5 -23t-91 -65.5t-56.5 -104t-20 -138.5v-526q0 -39 -27.5 -59t-60.5 -20q-16 0 -31 5t-26.5 14.5 t-18.5 24.5t-7 35z" />
<glyph unicode="s" horiz-adv-x="1095" d="M120 142q0 25 19.5 42.5t50.5 17.5q18 0 51 -15.5t79.5 -32t106.5 -31t133 -14.5q49 0 96.5 10t85.5 34t61 59.5t23 87.5q0 62 -40 97t-105 57q-57 18 -120 31.5t-124 28t-116.5 33.5t-97.5 50.5t-66.5 78t-24.5 116.5q0 81 35 136.5t94 90.5t134.5 50t155.5 15 q97 0 169.5 -16.5t119.5 -40.5t70 -51.5t23 -49.5q0 -24 -19 -39.5t-47 -15.5q-12 0 -25.5 3t-25.5 12q-24 16 -51.5 29t-59.5 21t-71 11.5t-88 3.5q-48 0 -91.5 -7.5t-77.5 -24.5t-53.5 -47t-19.5 -73q0 -37 17.5 -62t50 -43t78 -30t101 -25.5t119 -29t131.5 -39.5 q91 -29 144 -94.5t53 -155.5t-39 -154.5t-103.5 -106.5t-149 -62.5t-175.5 -20.5q-76 0 -150 15t-131.5 39t-93.5 53.5t-36 58.5z" />
<glyph unicode="t" horiz-adv-x="755" d="M51 996q0 25 18 44.5t52 19.5h134l14 302q2 34 28 53.5t56 19.5q27 0 48 -17t21 -54v-304h191q34 0 51.5 -20t17.5 -45t-17.5 -44t-51.5 -19h-191v-497q0 -96 2 -157.5t15 -99.5t39.5 -53.5t74.5 -15.5q28 0 59 5t52 4q32 0 47.5 -18.5t15.5 -36.5q0 -28 -19.5 -44.5 t-51 -26t-66.5 -13t-60 -3.5q-72 0 -124.5 19t-87 62t-51.5 112.5t-17 171.5v591h-129q-34 0 -52 20t-18 44z" />
<glyph unicode="u" horiz-adv-x="1239" d="M166 391v589q0 41 26.5 60.5t58.5 19.5q33 0 59.5 -19.5t26.5 -60.5v-601q0 -70 13.5 -123.5t46.5 -87t80 -46.5t105 -13q62 0 118 17.5t99 55.5t70.5 95.5t32.5 136.5v566q0 40 27.5 60t59.5 20t58 -19.5t26 -60.5v-900q0 -40 -27 -60t-59 -20q-17 0 -31.5 5t-26.5 14.5 t-19.5 24.5t-7.5 34v97q-22 -47 -59.5 -84t-85.5 -63t-102 -39t-109 -13q-77 0 -145.5 24t-121 74t-83 128.5t-30.5 188.5z" />
<glyph unicode="v" horiz-adv-x="1098" d="M55 983q0 17 7.5 31t20 24.5t28.5 16t32 5.5q24 0 45 -12.5t31 -41.5l335 -808l323 808q11 29 32.5 41.5t46.5 12.5q16 0 32 -5t28 -15.5t19.5 -24t7.5 -31.5q0 -16 -6 -32l-332 -823q-28 -68 -60.5 -98.5t-89.5 -30.5q-56 0 -89 30.5t-62 98.5l-343 823q-6 16 -6 31z " />
<glyph unicode="w" horiz-adv-x="1838" d="M66 978q0 18 7 33.5t19 26.5t27 16.5t31 5.5q24 0 46 -13.5t31 -44.5l290 -817l291 791q16 48 48.5 66t73.5 18q42 0 74 -18t48 -66l279 -782l283 808q10 29 31 43.5t46 14.5q34 0 58 -22.5t24 -56.5q0 -14 -5 -33l-327 -860q-15 -48 -45 -68t-66 -20q-18 0 -35 3.5 t-31.5 14.5t-27 29t-19.5 46l-293 805l-298 -805q-16 -53 -50 -73t-71 -20q-35 0 -66 18.5t-46 69.5l-321 860q-6 18 -6 30z" />
<glyph unicode="x" horiz-adv-x="1105" d="M91 76q0 21 15 40l338 428l-307 386q-10 12 -13.5 23.5t-3.5 23.5q0 17 7.5 32t20 26t29.5 18t34 7q18 0 35.5 -8.5t32.5 -27.5l283 -372l291 376q13 17 28.5 24.5t31.5 7.5q30 0 53.5 -21t23.5 -50q0 -23 -16 -43l-310 -399l331 -419q17 -21 17 -46q0 -16 -7.5 -31 t-20 -26t-29.5 -18t-34 -7q-18 0 -35.5 8.5t-32.5 27.5l-311 406l-310 -411q-23 -31 -58 -31q-16 0 -31 6.5t-26.5 16.5t-18.5 24t-7 29z" />
<glyph unicode="y" horiz-adv-x="1101" d="M51 980q0 17 8 32t22 26t30.5 16.5t35.5 5.5q24 0 45.5 -12.5t33.5 -40.5l331 -806l331 807q12 28 32 40q18 12 39 12h3q32 0 59 -21t27 -57q0 -16 -7 -32l-538 -1307q-13 -31 -34 -44.5t-45 -13.5q-16 0 -32 6t-28.5 16t-20 24.5t-7.5 32.5q0 15 6 31l130 316l-413 938 q-8 15 -8 31z" />
<glyph unicode="z" horiz-adv-x="996" d="M82 82q0 16 6 33.5t19 34.5l600 769h-541q-34 0 -52 22t-18 49q0 26 17.5 48t52.5 22h657q48 0 73.5 -23t25.5 -57q0 -16 -6 -33.5t-20 -35.5l-594 -771h540q35 0 53 -22t18 -48q0 -27 -18 -48.5t-53 -21.5h-667q-43 0 -68 24t-25 58z" />
<glyph unicode="{" horiz-adv-x="653" d="M17 677q0 28 17.5 50.5t54.5 22.5q49 5 79.5 25.5t47.5 55t22.5 82t5.5 106.5v321q0 54 18 98.5t47 76.5t65.5 50t73.5 18h127q31 0 46 -21.5t15 -46.5q0 -26 -15 -46.5t-46 -20.5h-68q-46 0 -67.5 -42t-21.5 -119v-308q0 -78 -19.5 -130.5t-46 -87t-51.5 -53.5t-36 -30 q11 -5 36 -23.5t51.5 -54.5t46 -90t19.5 -130v-305q0 -77 21.5 -119.5t67.5 -42.5h68q31 0 46 -21t15 -46q0 -26 -15 -46.5t-46 -20.5h-127q-37 0 -73.5 17.5t-65.5 49.5t-47 77t-18 99v318q0 59 -5.5 105.5t-22.5 80.5t-47.5 54t-79.5 26q-37 0 -54.5 22.5t-17.5 48.5z" />
<glyph unicode="|" horiz-adv-x="486" d="M169 -403v1911q0 37 23.5 55t51.5 18t51 -18t23 -55v-1911q0 -38 -23.5 -56.5t-51.5 -18.5t-51 18.5t-23 56.5z" />
<glyph unicode="}" horiz-adv-x="653" d="M16 -154q0 25 15 46t46 21h67q46 0 67.5 42.5t21.5 119.5v305q0 76 20 130t46 90t51.5 54.5t34.5 23.5q-9 10 -34.5 28.5t-51 53.5t-46 88t-20.5 131v308q0 77 -21.5 119t-67.5 42h-67q-31 0 -46 20.5t-15 46.5q0 25 15 46.5t46 21.5h125q38 0 75 -18t65.5 -50t47 -76.5 t18.5 -98.5v-321q0 -59 5 -106.5t22.5 -82t47.5 -55t80 -25.5q35 0 53.5 -22.5t18.5 -50.5q0 -26 -18.5 -48.5t-53.5 -22.5q-50 -6 -80 -26t-47.5 -54t-22.5 -80.5t-5 -105.5v-318q0 -54 -18.5 -99t-47 -77t-65.5 -49.5t-75 -17.5h-125q-31 0 -46 20.5t-15 46.5z" />
<glyph unicode="~" horiz-adv-x="1433" d="M385 1316q0 11 7 24q27 57 70 87.5t108 30.5q37 0 72.5 -11t69.5 -24t64.5 -24t57.5 -11q20 0 36.5 8.5t30.5 28.5q12 18 26 25.5t26 7.5q21 0 35.5 -15.5t14.5 -35.5q0 -5 -1.5 -10t-3.5 -10q-22 -57 -64.5 -90.5t-112.5 -33.5q-31 0 -65 11.5t-67 25t-64.5 25 t-60.5 11.5q-24 0 -43.5 -10t-37.5 -32q-21 -25 -48 -25q-20 0 -35 13.5t-15 33.5z" />
<glyph unicode="&#xa1;" horiz-adv-x="848" d="M328 1090q0 -18 7.5 -35t22 -31t36.5 -22t50 -8q29 0 50.5 8t36 22t22 31t7.5 35q0 19 -7.5 36.5t-22 31t-36 22t-50.5 8.5q-28 0 -50 -8.5t-36.5 -22t-22 -31t-7.5 -36.5zM339 -310q0 -42 29.5 -64t69.5 -22q39 0 68 21t29 65l-30 1029q-2 43 -22 64.5t-47 21.5 q-25 0 -46.5 -21.5t-22.5 -64.5z" />
<glyph unicode="&#xa2;" horiz-adv-x="1103" d="M89 531q0 104 31.5 199t89.5 170.5t139 124.5t181 62v226q0 34 21 51t47 17t47 -17t21 -51v-225q39 -3 87 -12t90.5 -24.5t71.5 -36.5t29 -47q0 -23 -15 -44.5t-39 -21.5q-6 0 -9 1q-69 24 -126.5 37.5t-115.5 13.5q-77 0 -144.5 -25.5t-117.5 -78t-78.5 -131.5 t-28.5 -186q0 -96 24.5 -174t71 -132.5t114 -84t152.5 -29.5q59 0 127 13t142 43q4 1 7.5 1.5t7.5 0.5q25 0 41 -20t16 -45q0 -31 -32.5 -54t-79.5 -40t-100 -27t-95 -13v-215q0 -34 -21.5 -51t-47.5 -17t-46.5 17t-20.5 51v216q-109 11 -191.5 59.5t-137.5 124t-83.5 172 t-28.5 202.5z" />
<glyph unicode="&#xa3;" horiz-adv-x="1456" d="M136 873q0 27 17.5 48.5t53.5 21.5h148v236q0 104 30.5 175t84.5 115t129 64t164 20q71 0 150.5 -9.5t152.5 -27.5q20 -7 30 -25t10 -38q0 -23 -14.5 -42t-43.5 -19q-6 0 -10 0.5t-10 1.5q-60 6 -116.5 13.5t-126.5 7.5q-85 0 -136 -17t-77.5 -55.5t-34.5 -101t-8 -154.5 v-144h402q35 0 53 -21.5t18 -48.5t-18 -49t-53 -22h-402v-647h682q40 0 59 -24.5t19 -53.5q0 -30 -19 -54t-59 -24h-968q-40 0 -59.5 24.5t-19.5 54.5q0 28 19 52t57 24h115v648h-148q-35 0 -53 22t-18 49z" />
<glyph unicode="&#xa4;" horiz-adv-x="1243" d="M158 226q0 21 17 38l91 91q-49 61 -73 135.5t-24 152.5q0 77 23.5 150t71.5 134l-89 89q-17 18 -17 39t17 38t38 17q20 0 38 -18l89 -89q55 40 126 64t161 24q89 0 160.5 -24t126.5 -64l90 89q17 18 38 18q22 0 38.5 -17t16.5 -39q0 -9 -4 -19t-12 -19l-91 -89 q48 -61 71.5 -134.5t23.5 -149.5q0 -78 -24.5 -152.5t-72.5 -135.5l93 -91q8 -8 12 -18.5t4 -19.5q0 -22 -16.5 -39t-38.5 -17q-19 -1 -37 17l-95 94q-55 -40 -125 -62.5t-158 -22.5q-87 0 -157.5 22.5t-124.5 61.5l-94 -93q-17 -17 -38 -17t-38 16.5t-17 39.5zM301 643 q0 -63 20 -124t61.5 -108.5t102.5 -76.5t142 -29t142 29t102.5 76.5t61.5 108.5t20 124t-20 124t-61.5 108.5t-102.5 77t-142 29.5t-142 -29.5t-102.5 -77t-61.5 -108.5t-20 -124z" />
<glyph unicode="&#xa5;" horiz-adv-x="1259" d="M31 1438q0 18 8.5 33.5t23 27.5t33 18.5t38.5 6.5q22 0 43.5 -11t36.5 -35l431 -670l434 671q13 24 34 34.5t43 10.5q33 0 58.5 -20t25.5 -51q0 -10 -2.5 -20.5t-10.5 -21.5l-494 -741h354q33 0 49 -20.5t16 -44.5q0 -25 -16 -45t-49 -20h-359v-123h359q33 0 49 -20 t16 -45t-16 -44.5t-49 -19.5h-359v-198q0 -23 -8 -39t-21.5 -27t-30.5 -16.5t-36 -5.5q-18 0 -34.5 5.5t-30.5 16.5t-22 27t-8 39v198h-363q-32 0 -48.5 20t-16.5 45t16 44.5t49 19.5h363v123h-363q-32 0 -48 21t-16 46q0 23 15.5 43t48.5 20h355l-485 727q-8 11 -10.5 21 t-2.5 20z" />
<glyph unicode="&#xa6;" horiz-adv-x="486" d="M169 -50v657q0 37 24 55q17 14 36 19q-19 3 -37 17q-23 19 -23 56v627q0 38 23.5 56.5t51.5 18.5t51 -18.5t23 -56.5v-627q0 -37 -24 -56q-18 -14 -37 -17q20 -4 37 -19q24 -18 24 -55v-657q0 -38 -23.5 -56.5t-51.5 -18.5t-51 18.5t-23 56.5z" />
<glyph unicode="&#xa7;" d="M223 75q0 26 17.5 47.5t47.5 21.5q11 0 27 -5q45 -17 100.5 -26t130.5 -9q47 0 95 10.5t86.5 34t62.5 61.5t24 94q0 43 -24.5 71.5t-65 50.5t-92.5 39.5t-106.5 36t-106.5 41t-92.5 55t-65.5 77.5t-25 108q0 48 21 89.5t55 75.5t76 60.5t85 43.5q-42 25 -79.5 50t-65 55 t-43.5 68t-16 90q0 82 33 139.5t88.5 93.5t128.5 52t152 16q63 0 125.5 -12.5t121.5 -29.5q25 -8 36 -24.5t11 -35.5q0 -27 -17.5 -49.5t-45.5 -22.5h-9q-4 0 -8 2q-42 12 -93.5 23.5t-92.5 11.5q-40 0 -82 -7t-77.5 -24.5t-58.5 -49t-23 -78.5q0 -40 23.5 -70t61.5 -54 t86.5 -44t99.5 -40.5t99.5 -44t86.5 -54t61.5 -70.5t23.5 -93q0 -50 -20 -91.5t-53.5 -76t-74.5 -61t-84 -44.5q48 -20 91 -44.5t75 -57t50.5 -75.5t18.5 -98q0 -87 -36 -150t-95.5 -105t-137 -61.5t-160.5 -19.5q-78 0 -156 11.5t-148 36.5q-25 8 -36 25.5t-11 35.5z M409 804q0 -38 23 -66.5t56.5 -49t71.5 -36t69 -28.5q32 18 67.5 36t65 41t48.5 52t19 69t-25.5 67.5t-63 47t-80 35t-75.5 32.5q-32 -21 -63.5 -39.5t-56.5 -41t-40.5 -51.5t-15.5 -68z" />
<glyph unicode="&#xa8;" horiz-adv-x="608" d="M-7 1394q0 19 7 37t21 32t34.5 22.5t47.5 8.5q26 0 47 -8.5t35 -22.5t21.5 -32t7.5 -37t-7.5 -37t-21.5 -32.5t-35 -23t-47 -8.5q-27 0 -47.5 8.5t-34.5 23t-21 32.5t-7 37zM396 1394q0 19 7.5 37t21.5 32t34.5 22.5t47.5 8.5t47.5 -8.5t34 -22.5t21 -32t7.5 -37 t-7.5 -37t-21 -32.5t-34 -23t-47.5 -8.5t-47.5 8.5t-34.5 23t-21.5 32.5t-7.5 37z" />
<glyph unicode="&#xa9;" horiz-adv-x="1771" d="M154 845q0 98 26.5 188.5t75 169.5t116 143.5t149.5 110.5t177 72t198 26q101 0 195.5 -26t176 -72t149 -110.5t115.5 -143.5t74.5 -169.5t26.5 -188.5t-26.5 -188.5t-74.5 -169t-115.5 -143.5t-149 -111.5t-176 -71.5t-195.5 -25q-103 0 -198 25t-177 71.5t-149.5 111.5 t-116 143.5t-75 169.5t-26.5 188zM281 845q0 -128 46 -236t128 -187t194.5 -122.5t246.5 -43.5q132 0 243.5 43.5t192.5 122.5t126.5 187t45.5 236t-45.5 236t-126.5 186.5t-192.5 122.5t-243.5 44q-134 0 -246.5 -44t-194.5 -122.5t-128 -186.5t-46 -236zM492 852 q0 104 34 182t90.5 130.5t131 78.5t156.5 26q30 0 78.5 -7t96 -21t81.5 -34.5t34 -47.5q0 -21 -13.5 -38t-34.5 -17q-8 0 -20 6q-50 26 -104 39.5t-105 13.5q-60 0 -113.5 -18t-93.5 -56t-63.5 -96.5t-23.5 -138.5q0 -78 25 -138t66.5 -101t97 -62t116.5 -21q48 0 94.5 14 t93.5 39q8 6 21 6q19 0 31.5 -14t12.5 -33q0 -20 -14.5 -36t-37.5 -28.5t-53 -23t-60.5 -17t-58.5 -9.5t-50 -3q-80 0 -155 27.5t-132.5 81.5t-92.5 133t-35 183z" />
<glyph unicode="&#xaa;" horiz-adv-x="1116" d="M150 1002q0 75 33 128t93.5 86t144.5 48t187 15q21 0 45.5 -1t48.5 -4v71q0 47 -14 78.5t-38.5 51t-59.5 28t-77 8.5q-43 0 -76.5 -5.5t-61.5 -15t-52 -23t-49 -28.5q-8 -5 -15.5 -6.5t-13.5 -1.5q-20 0 -34 13.5t-14 32.5q-1 17 17 35q51 50 127.5 77t174.5 27 q71 0 129 -16t98 -50.5t62 -87t22 -126.5l-1 -506q0 -28 -19 -42t-43 -14q-22 0 -41.5 13.5t-19.5 41.5v77q-17 -37 -46 -66t-65 -49.5t-77 -30.5t-84 -10q-60 0 -111 17t-88.5 49.5t-59.5 79t-22 106.5zM281 1005q0 -40 14 -69t38 -48t57 -28.5t69 -10.5q49 1 92 17 t75.5 47.5t52.5 78.5t23 110v77h-84q-46 0 -92.5 -3.5t-90.5 -13t-78 -29t-55 -50.5t-21 -78z" />
<glyph unicode="&#xab;" horiz-adv-x="1239" d="M205 582l227 408q15 26 34.5 38t38.5 12q25 0 42.5 -16.5t17.5 -41.5q0 -5 -1 -12t-4 -13l-177 -375l177 -375q5 -12 5 -27q0 -25 -17.5 -41t-42.5 -16q-19 0 -38.5 11.5t-34.5 38.5zM618 582l227 408q15 28 35 38.5t38 11.5q25 0 43 -16.5t18 -41.5q0 -15 -5 -25 l-177 -375l177 -375q5 -12 5 -26q0 -25 -18 -41.5t-43 -16.5q-18 0 -38 11.5t-35 38.5z" />
<glyph unicode="&#xac;" horiz-adv-x="1433" d="M170 768q0 28 16 51t50 23h954q14 0 28 -6.5t24.5 -17t17 -24t6.5 -27.5v-450q0 -37 -23.5 -54.5t-51.5 -17.5t-51 17.5t-23 54.5v377h-881q-34 0 -50 23t-16 51z" />
<glyph unicode="&#xad;" horiz-adv-x="608" />
<glyph unicode="&#xae;" horiz-adv-x="1772" d="M139 815q0 99 27 191t76 172t118 146t152.5 113t180 72.5t199.5 25.5t199 -25.5t179.5 -72.5t152 -113t117.5 -146t75.5 -172t26.5 -191q0 -98 -26.5 -189t-75.5 -170t-117.5 -145t-152 -113t-179.5 -72.5t-199 -25.5t-199.5 25.5t-180 72.5t-152.5 113t-118 145 t-76 170.5t-27 188.5zM272 815q0 -129 46.5 -238.5t129 -189t196.5 -124.5t248 -45t247.5 45t196 124.5t128.5 189t46 238.5q0 130 -46 239t-128.5 188t-196 124t-247.5 45t-248 -45t-196.5 -124t-129 -188t-46.5 -239zM620 475v666q0 14 4 27.5t13.5 25.5t24.5 19.5t37 7.5 h274q81 0 137 -14t91 -41.5t50 -68t15 -94.5q0 -60 -19 -99t-52 -64.5t-78 -37.5t-97 -18l198 -282q8 -13 8 -28q0 -24 -19.5 -40t-43.5 -16q-12 0 -23 6t-20 19l-220 340h-158v-308q0 -28 -19.5 -42.5t-43.5 -14.5q-22 0 -40.5 14t-18.5 43zM742 885h207q35 0 69 2t60 14 t42 36.5t16 69.5q0 35 -15 57t-40.5 34t-58.5 15.5t-70 3.5h-210v-232z" />
<glyph unicode="&#xaf;" horiz-adv-x="608" d="M17 1476q0 26 17.5 48.5t54.5 22.5h437q35 0 52 -22.5t17 -48.5q0 -28 -17 -50t-52 -22h-437q-37 0 -54.5 22t-17.5 50z" />
<glyph unicode="&#xb0;" horiz-adv-x="876" d="M111 1186q0 65 26 122t69.5 100t103.5 68t129 25q67 0 126.5 -25t104 -68t70.5 -100t26 -122q0 -66 -26 -123t-70.5 -100t-104 -67.5t-126.5 -24.5q-68 0 -128 24.5t-104 67.5t-70 100t-26 123zM219 1186q0 -46 17 -84.5t45.5 -67t69 -44t88.5 -15.5q46 0 86 15.5t70 44 t46.5 67t16.5 84.5q0 44 -17 83t-46.5 67.5t-70 44.5t-87.5 16q-48 0 -88 -16t-69 -44.5t-45 -67.5t-16 -83z" />
<glyph unicode="&#xb1;" horiz-adv-x="1433" d="M170 72q0 28 18.5 49.5t54.5 21.5h948q37 0 55.5 -21.5t18.5 -49.5q0 -27 -19 -49.5t-55 -22.5h-948q-36 0 -54.5 22.5t-18.5 49.5zM171 642q0 27 18 49t54 22h399v276q0 34 23.5 52t51.5 18t51 -17.5t23 -52.5v-276h400q36 0 54.5 -22t18.5 -50q0 -27 -18.5 -49.5 t-54.5 -22.5h-400v-273q0 -34 -24 -51.5t-52 -17.5t-50.5 17t-22.5 52v273h-399q-35 0 -53.5 22.5t-18.5 50.5z" />
<glyph unicode="&#xb2;" horiz-adv-x="797" d="M96 663q0 40 43 80q32 28 75.5 69t90 88t92 98t81.5 101t57.5 96t21.5 84q0 32 -13.5 56.5t-36 41t-52 25t-60.5 8.5q-47 0 -92 -17t-77 -35q-18 -11 -36 -11t-29.5 11.5t-11.5 26.5q0 20 25 41.5t63.5 38t83 27t82.5 10.5q54 0 102.5 -13t85.5 -40.5t59 -67.5t22 -94 q0 -49 -22 -102t-58 -106.5t-82.5 -107t-96 -102.5t-98.5 -92.5t-89 -78.5h411q21 0 33 -14.5t12 -31.5t-11.5 -31t-33.5 -14h-463q-40 0 -59 16t-19 40z" />
<glyph unicode="&#xb3;" horiz-adv-x="844" d="M167 1408q0 22 25.5 38.5t63 27.5t79.5 17t75 6q55 0 107 -14.5t93 -44.5t65.5 -76t24.5 -109q0 -42 -13.5 -75.5t-36.5 -59.5t-54.5 -43t-67.5 -25v-1q41 -10 75.5 -30.5t59.5 -50.5t39 -68t14 -83q0 -63 -24 -109t-65 -76.5t-94.5 -45t-110.5 -14.5q-31 0 -73.5 7 t-80.5 19t-64 29t-26 39q0 16 12.5 29t33.5 13q10 0 16 -2q30 -15 79.5 -29t105.5 -14q84 0 134 39.5t50 114.5q0 44 -17 78.5t-45.5 58t-65.5 36t-78 12.5h-48q-21 0 -32 13t-11 29q0 17 11 30t32 14l39 1q38 1 74.5 11t64.5 29.5t44.5 50t16.5 72.5q0 36 -14.5 65 t-38.5 48.5t-56 29.5t-68 10q-34 0 -67 -7t-61.5 -15t-49 -14.5t-27.5 -6.5q-20 0 -32.5 14.5t-12.5 31.5z" />
<glyph unicode="&#xb4;" horiz-adv-x="608" d="M89 1221q0 7 2.5 16.5t10.5 17.5l287 322q25 28 55 27q18 0 35 -8t31 -21.5t22 -30t8 -33.5q0 -13 -5 -26t-18 -22l-345 -265q-22 -18 -44 -18q-18 0 -28.5 12t-10.5 29z" />
<glyph unicode="&#xb5;" horiz-adv-x="1239" d="M166 -185v1164q0 41 26.5 60.5t58.5 19.5q33 0 59.5 -19.5t26.5 -60.5v-610q0 -69 20.5 -120.5t54.5 -85.5t78 -50t92 -16q62 0 118 19.5t99 59t70.5 98t32.5 137.5v569q0 40 27.5 60t59.5 20t58 -19.5t26 -60.5v-900q0 -39 -27 -59.5t-59 -20.5q-33 0 -59 20t-26 59v96 q-22 -47 -59 -82.5t-83 -60.5t-99 -37.5t-106 -12.5q-61 0 -116.5 15t-101.5 49v-231q0 -43 -28 -64.5t-60 -21.5t-57.5 20.5t-25.5 65.5z" />
<glyph unicode="&#xb6;" horiz-adv-x="1417" d="M137 1118q0 96 32.5 172t94.5 128t152.5 80t205.5 28h386q40 0 63.5 -11t35 -27.5t15 -38t3.5 -43.5v-1619q0 -37 -25 -56.5t-55 -19.5t-54.5 19.5t-24.5 56.5v1603h-246v-1603q0 -37 -24.5 -56.5t-54.5 -19.5t-54.5 19.5t-24.5 56.5v934q-87 0 -164.5 31.5t-135.5 85.5 t-91.5 126.5t-33.5 153.5z" />
<glyph unicode="&#xb7;" horiz-adv-x="624" d="M196 556q0 21 7.5 39.5t22.5 33t37 23.5t49 9q28 0 49.5 -9t36.5 -23.5t22.5 -33t7.5 -39.5q0 -20 -7.5 -39t-22.5 -33.5t-36.5 -24t-49.5 -9.5q-27 0 -49 9.5t-37 24t-22.5 33.5t-7.5 39z" />
<glyph unicode="&#xb8;" horiz-adv-x="608" d="M74 -340q0 13 7.5 23.5t20.5 10.5q5 0 14 -3q40 -15 82 -26.5t90 -11.5q58 0 79 23t21 66q0 22 -10 36.5t-27 24t-38 13.5t-43 4q-4 0 -7.5 -0.5t-6.5 -0.5q-20 0 -29 9t-9 23q0 8 3 17l49 142h63l-37 -120q42 2 82.5 -3t73 -21t52 -46.5t19.5 -80.5q0 -41 -17.5 -70.5 t-46.5 -49t-65.5 -29t-72.5 -9.5q-45 0 -89 5.5t-79 16.5t-57 25.5t-22 31.5z" />
<glyph unicode="&#xb9;" horiz-adv-x="736" d="M199 1302q0 21 18 32l213 135q14 9 30 9q18 0 33 -13t15 -41v-767q0 -25 -16.5 -37.5t-35.5 -12.5t-35.5 12.5t-16.5 37.5v702l-141 -91q-10 -8 -22 -8q-18 0 -30 13.5t-12 28.5z" />
<glyph unicode="&#xba;" horiz-adv-x="1196" d="M169 1186q0 81 24.5 158t75 137.5t127.5 97.5t183 37t183.5 -37t128.5 -97.5t75.5 -137.5t24.5 -158q0 -82 -24.5 -159t-75.5 -137.5t-128.5 -97t-183.5 -36.5t-183 36.5t-127.5 97t-75 137.5t-24.5 159zM310 1186q0 -56 15 -114.5t48 -105.5t83.5 -77.5t122.5 -30.5 t123 30.5t84 77.5t48 105.5t15 115.5q0 55 -15 113t-48 105.5t-84 77.5t-123 30t-122.5 -30t-83.5 -77.5t-48 -106t-15 -113.5z" />
<glyph unicode="&#xbb;" horiz-adv-x="1239" d="M255 180q0 12 6 27l177 375l-177 375q-6 12 -6 25q0 25 18 41.5t43 16.5q18 0 37.5 -12t34.5 -38l227 -408l-227 -409q-15 -27 -34.5 -38.5t-37.5 -11.5q-25 0 -43 16t-18 41zM669 180q0 12 6 27l177 375l-177 375q-6 12 -6 25q0 25 18 41.5t43 16.5q18 0 38 -12t34 -38 l227 -408l-227 -409q-14 -27 -34 -38.5t-38 -11.5q-25 0 -43 16t-18 41z" />
<glyph unicode="&#xbc;" horiz-adv-x="1651" d="M164 1302q0 21 18 32l213 135q14 9 30 9q18 0 33.5 -13t15.5 -41v-767q0 -25 -16.5 -37.5t-36.5 -12.5t-36 12.5t-16 37.5v702l-141 -91q-11 -8 -23 -8q-18 0 -29.5 13.5t-11.5 28.5zM485 -37q0 11 4 23l508 1503q8 23 24.5 33.5t34.5 10.5q24 0 42.5 -15t18.5 -41 q0 -6 -1 -12t-3 -12l-512 -1504q-7 -22 -22.5 -32.5t-33.5 -10.5q-23 0 -41.5 15t-18.5 42zM890 261q0 20 13 40l360 545q17 28 40 40.5t47 12.5q31 0 53 -19.5t22 -59.5v-540h100q20 0 30.5 -11.5t10.5 -26.5t-10 -27t-31 -12h-100v-151q0 -25 -16 -38t-35 -13t-35 13 t-16 38v151h-372q-28 0 -44.5 17.5t-16.5 40.5zM987 280h336v517z" />
<glyph unicode="&#xbd;" horiz-adv-x="1669" d="M164 1302q0 21 18 32l213 135q14 9 30 9q18 0 33.5 -13t15.5 -41v-767q0 -25 -16.5 -37.5t-36.5 -12.5t-36 12.5t-16 37.5v702l-141 -91q-11 -8 -23 -8q-18 0 -29.5 13.5t-11.5 28.5zM483 -37q0 11 4 23l508 1503q8 23 24.5 33.5t34.5 10.5q23 0 42 -15t19 -41 q0 -6 -1 -12t-3 -12l-512 -1504q-7 -22 -22.5 -32.5t-34.5 -10.5q-22 0 -40.5 15t-18.5 42zM965 56q0 20 11.5 40.5t31.5 39.5q31 30 74.5 70.5t89.5 87.5t91.5 98t81 100.5t58 96t22.5 84.5q0 32 -14 56.5t-36.5 40.5t-51 25t-59.5 9q-48 0 -93 -17.5t-77 -35.5 q-19 -11 -36 -11q-18 0 -29 11.5t-11 26.5q0 20 25 41t63 38t82.5 28t82.5 11q54 0 102.5 -13.5t85.5 -41t59 -67.5t22 -92q0 -50 -22 -103t-58 -107t-82.5 -107.5t-96 -102.5t-98.5 -92.5t-88 -78.5h409q22 0 33.5 -14.5t11.5 -31.5t-11 -31t-34 -14h-462q-40 0 -58.5 16 t-18.5 40z" />
<glyph unicode="&#xbe;" horiz-adv-x="1715" d="M61 1416q0 21 25.5 37.5t63 28t79.5 17t75 5.5q56 0 107.5 -14t92.5 -44t65.5 -76t24.5 -108q0 -42 -13.5 -76t-36.5 -59.5t-54.5 -43t-67.5 -26.5v-1q41 -10 75.5 -30t59.5 -50t39 -68t14 -83q0 -63 -24 -109t-65.5 -76.5t-94.5 -45t-110 -14.5q-31 0 -73.5 7 t-80.5 18.5t-64 29t-26 38.5q0 17 12 30.5t33 13.5q7 0 17 -3q30 -15 79.5 -28.5t105.5 -13.5q84 0 134 39t50 114q0 44 -17 78t-45.5 57.5t-65.5 36t-78 12.5h-48q-21 0 -31.5 13.5t-10.5 29.5q0 17 10.5 30t31.5 14l39 1q38 1 74.5 10.5t64.5 30t44.5 51t16.5 71.5 q0 37 -14.5 65.5t-38.5 47.5t-56 29t-68 10q-34 0 -67 -7t-61.5 -15t-49 -14t-27.5 -6q-21 0 -33 13.5t-12 32.5zM518 -37q0 11 4 23l507 1503q8 23 24.5 33.5t35.5 10.5q23 0 41.5 -15t18.5 -41q0 -12 -4 -24l-510 -1504q-8 -22 -23.5 -32.5t-33.5 -10.5q-23 0 -41.5 15 t-18.5 42zM907 261q0 20 13 40l360 545q17 28 39.5 40.5t47.5 12.5q31 0 53 -19.5t22 -59.5v-540h100q20 0 31 -11.5t11 -26.5t-10.5 -27t-31.5 -12h-100v-151q0 -25 -16 -38t-35 -13q-20 0 -36 13t-16 38v151h-371q-27 0 -44 17.5t-17 40.5zM1003 280h336v517z" />
<glyph unicode="&#xbf;" horiz-adv-x="1104" d="M145 -27q0 69 17.5 123t48 100.5t71 88.5t85.5 85q52 54 89.5 88t61.5 61t35 52t12 61v16q0 12 -0.5 33.5t-0.5 55.5q0 38 26 57t57 19q37 0 54.5 -15.5t24 -45t5.5 -72.5t-1 -98q-2 -53 -32 -100t-74 -91t-94 -88t-93.5 -92.5t-72.5 -103.5t-29 -121q0 -72 24 -119.5 t63 -76t90 -40t105 -11.5q15 0 42.5 1.5t61.5 5t70 8.5t67 13q11 2 17 2q31 0 49.5 -24.5t18.5 -54.5q0 -25 -15.5 -48t-50.5 -32q-74 -19 -151.5 -26t-151.5 -7q-88 0 -165.5 23.5t-136.5 73t-93 124t-34 175.5zM527 1099q0 20 7.5 39.5t22.5 34t36 23.5t49 9t49.5 -9 t36 -23.5t22 -34t7.5 -39.5q0 -19 -7.5 -38t-22 -33.5t-36 -23t-49.5 -8.5t-49 8.5t-36 23t-22.5 33.5t-7.5 38z" />
<glyph unicode="&#xc0;" horiz-adv-x="1489" d="M51 83q0 14 7 33l509 1243q20 53 40.5 86.5t41.5 51t44 23.5t50 6q26 0 49 -6t44.5 -24t41.5 -51t41 -86l512 -1243q5 -19 5 -30q0 -20 -8.5 -36t-23 -27t-32.5 -17t-37 -6q-25 0 -47.5 13.5t-32.5 43.5l-137 342h-756l-136 -342q-11 -31 -32.5 -44t-45.5 -13 q-19 0 -36 6t-30.5 17t-22 26.5t-8.5 33.5zM415 544h650l-323 825h-3zM528 1980q0 17 8.5 33.5t22 30t31 22t35.5 8.5q15 0 28.5 -6t26.5 -21l288 -322q7 -8 10 -17t3 -17q0 -17 -11 -29t-29 -12q-21 0 -44 18l-344 265q-13 9 -18.5 21.5t-6.5 25.5z" />
<glyph unicode="&#xc1;" horiz-adv-x="1489" d="M51 83q0 14 7 33l509 1243q20 53 40.5 86.5t41.5 51t44 23.5t50 6q26 0 49 -6t44.5 -24t41.5 -51t41 -86l512 -1243q5 -19 5 -30q0 -20 -8.5 -36t-23 -27t-32.5 -17t-37 -6q-25 0 -47.5 13.5t-32.5 43.5l-137 342h-756l-136 -342q-11 -31 -32.5 -44t-45.5 -13 q-19 0 -36 6t-30.5 17t-22 26.5t-8.5 33.5zM415 544h650l-323 825h-3zM507 1691q0 7 2.5 16.5t10.5 17.5l287 322q25 28 55 27q18 0 35 -8t31 -21.5t22 -30t8 -33.5q0 -13 -5 -26t-18 -22l-345 -265q-22 -18 -44 -18q-18 0 -28.5 12t-10.5 29z" />
<glyph unicode="&#xc2;" horiz-adv-x="1489" d="M51 83q0 14 7 33l509 1243q20 53 40.5 86.5t41.5 51t44 23.5t50 6q26 0 49 -6t44.5 -24t41.5 -51t41 -86l512 -1243q5 -19 5 -30q0 -20 -8.5 -36t-23 -27t-32.5 -17t-37 -6q-25 0 -47.5 13.5t-32.5 43.5l-137 342h-756l-136 -342q-11 -31 -32.5 -44t-45.5 -13 q-19 0 -36 6t-30.5 17t-22 26.5t-8.5 33.5zM415 544h650l-323 825h-3zM435 1712q0 12 3.5 24.5t13.5 24.5l202 286q38 54 91 54q24 0 47 -13t45 -41l201 -286q9 -12 14 -24t4 -24q0 -24 -17 -40t-42 -16q-16 0 -33 8.5t-33 27.5l-185 249l-186 -249q-16 -20 -34 -28.5 t-34 -8.5q-24 0 -40.5 16t-16.5 40z" />
<glyph unicode="&#xc3;" horiz-adv-x="1489" d="M51 83q0 14 7 33l509 1243q20 53 40.5 86.5t41.5 51t44 23.5t50 6q26 0 49 -6t44.5 -24t41.5 -51t41 -86l512 -1243q5 -19 5 -30q0 -20 -8.5 -36t-23 -27t-32.5 -17t-37 -6q-25 0 -47.5 13.5t-32.5 43.5l-137 342h-756l-136 -342q-11 -31 -32.5 -44t-45.5 -13 q-19 0 -36 6t-30.5 17t-22 26.5t-8.5 33.5zM415 544h650l-323 825h-3zM436 1770q0 10 5 19q22 62 67 100.5t118 38.5q36 0 72 -11t69 -24t63 -24t57 -11q37 0 67 37q31 39 62 39q18 0 29 -11.5t11 -29.5q0 -6 -2 -17q-9 -30 -25 -56t-39 -45.5t-53 -30.5t-66 -11 q-32 0 -65 11.5t-65.5 25t-64 25t-59.5 11.5q-23 0 -43 -10t-38 -32q-13 -16 -28 -23.5t-30 -7.5q-17 0 -29.5 9.5t-12.5 27.5z" />
<glyph unicode="&#xc4;" horiz-adv-x="1489" d="M51 83q0 14 7 33l509 1243q20 53 40.5 86.5t41.5 51t44 23.5t50 6q26 0 49 -6t44.5 -24t41.5 -51t41 -86l512 -1243q5 -19 5 -30q0 -20 -8.5 -36t-23 -27t-32.5 -17t-37 -6q-25 0 -47.5 13.5t-32.5 43.5l-137 342h-756l-136 -342q-11 -31 -32.5 -44t-45.5 -13 q-19 0 -36 6t-30.5 17t-22 26.5t-8.5 33.5zM415 544h650l-323 825h-3zM433 1864q0 19 7 37t21 32t34.5 22.5t47.5 8.5q26 0 47 -8.5t35 -22.5t21.5 -32t7.5 -37t-7.5 -37t-21.5 -32.5t-35 -23t-47 -8.5q-27 0 -47.5 8.5t-34.5 23t-21 32.5t-7 37zM836 1864q0 19 7.5 37 t21.5 32t34.5 22.5t47.5 8.5t47.5 -8.5t34 -22.5t21 -32t7.5 -37t-7.5 -37t-21 -32.5t-34 -23t-47.5 -8.5t-47.5 8.5t-34.5 23t-21.5 32.5t-7.5 37z" />
<glyph unicode="&#xc5;" horiz-adv-x="1489" d="M51 83q0 14 7 33l509 1243q20 53 40.5 86.5t41.5 51t44 23.5t50 6q26 0 49 -6t44.5 -24t41.5 -51t41 -86l512 -1243q5 -19 5 -30q0 -20 -8.5 -36t-23 -27t-32.5 -17t-37 -6q-25 0 -47.5 13.5t-32.5 43.5l-137 342h-756l-136 -342q-11 -31 -32.5 -44t-45.5 -13 q-19 0 -36 6t-30.5 17t-22 26.5t-8.5 33.5zM415 544h650l-323 825h-3zM542 1848q0 40 16.5 75t44 62t64.5 42.5t78 15.5q42 0 78 -15.5t64 -42.5t44 -62t16 -75q0 -39 -16 -74.5t-44 -62.5t-64 -43t-78 -16q-41 0 -78 16t-64.5 43t-44 62.5t-16.5 74.5zM627 1848 q0 -21 10 -41.5t26.5 -36.5t37.5 -25.5t44 -9.5q21 0 42.5 9.5t38 25.5t27 36.5t10.5 41.5q0 22 -10.5 42t-26.5 36t-37.5 26t-43.5 10q-23 0 -44 -9.5t-37.5 -25.5t-26.5 -36t-10 -43z" />
<glyph unicode="&#xc6;" horiz-adv-x="2100" d="M56 67q0 11 3 23.5t12 25.5l790 1251q30 53 56.5 84.5t51.5 48t49 21.5t50 5h875q22 0 38.5 -8t27.5 -20.5t17 -28t6 -31.5q0 -27 -16.5 -47t-53.5 -20h-743l81 -509h610q21 0 38 -7.5t28 -19.5t17 -27.5t6 -31.5q0 -27 -17 -47.5t-54 -20.5h-605l90 -553h550 q22 0 38.5 -8t27.5 -20.5t17 -28t6 -31.5q0 -25 -16.5 -46t-52.5 -21h-643q-16 0 -32.5 2t-29.5 8.5t-22 17.5t-13 29l-59 342h-739l-219 -342q-17 -31 -42 -44.5t-49 -13.5q-31 0 -55 18.5t-24 49.5zM530 544h636l-131 840h-4z" />
<glyph unicode="&#xc7;" horiz-adv-x="1481" d="M126 753q0 152 42.5 297t128.5 253.5t216.5 172t307.5 63.5q109 0 205 -23.5t179 -61.5q24 -12 35.5 -33t11.5 -43q0 -30 -18 -53.5t-50 -23.5q-12 0 -24 4q-85 31 -170 49.5t-155 18.5q-97 0 -171 -26t-130.5 -70t-95.5 -104.5t-63.5 -130.5t-35.5 -144.5t-11 -142.5 q0 -65 11 -139.5t35.5 -144.5t63.5 -130.5t95.5 -104.5t130.5 -70t171 -26q36 0 79.5 6t89.5 18.5t92.5 30.5t90.5 44q9 5 19.5 7t18.5 2q28 0 46 -20.5t18 -48.5q0 -31 -22.5 -58t-59.5 -49.5t-86 -40t-100.5 -30t-103 -19t-94.5 -6.5q-179 0 -310 63t-217 171t-128 252 t-42 291zM523 -340q0 13 7.5 23.5t20.5 10.5q5 0 14 -3q40 -15 82 -26.5t90 -11.5q58 0 79 23t21 66q0 22 -10 36.5t-27 24t-38 13.5t-43 4q-4 0 -7.5 -0.5t-6.5 -0.5q-20 0 -29 9t-9 23q0 8 3 17l49 142h63l-37 -120q42 2 82.5 -3t73 -21t52 -46.5t19.5 -80.5 q0 -41 -17.5 -70.5t-46.5 -49t-65.5 -29t-72.5 -9.5q-45 0 -89 5.5t-79 16.5t-57 25.5t-22 31.5z" />
<glyph unicode="&#xc8;" horiz-adv-x="1342" d="M213 92v1342q0 17 6.5 33.5t18.5 29.5t28 21t36 8h798q40 0 59 -24t19 -53q0 -30 -19 -54t-59 -24h-700v-509h666q40 0 59.5 -24t19.5 -53t-20 -53t-59 -24h-666v-553h730q40 0 59 -24t19 -53q0 -30 -19 -54t-59 -24h-823q-18 0 -34.5 7.5t-30 20.5t-21.5 29.5t-8 34.5z M456 1980q0 17 8.5 33.5t22 30t31 22t35.5 8.5q15 0 28.5 -6t26.5 -21l288 -322q7 -8 10 -17t3 -17q0 -17 -11 -29t-29 -12q-21 0 -44 18l-344 265q-13 9 -18.5 21.5t-6.5 25.5z" />
<glyph unicode="&#xc9;" horiz-adv-x="1342" d="M213 92v1342q0 17 6.5 33.5t18.5 29.5t28 21t36 8h798q40 0 59 -24t19 -53q0 -30 -19 -54t-59 -24h-700v-509h666q40 0 59.5 -24t19.5 -53t-20 -53t-59 -24h-666v-553h730q40 0 59 -24t19 -53q0 -30 -19 -54t-59 -24h-823q-18 0 -34.5 7.5t-30 20.5t-21.5 29.5t-8 34.5z M435 1691q0 7 2.5 16.5t10.5 17.5l287 322q25 28 55 27q18 0 35 -8t31 -21.5t22 -30t8 -33.5q0 -13 -5 -26t-18 -22l-345 -265q-22 -18 -44 -18q-18 0 -28.5 12t-10.5 29z" />
<glyph unicode="&#xca;" horiz-adv-x="1342" d="M213 92v1342q0 17 6.5 33.5t18.5 29.5t28 21t36 8h798q40 0 59 -24t19 -53q0 -30 -19 -54t-59 -24h-700v-509h666q40 0 59.5 -24t19.5 -53t-20 -53t-59 -24h-666v-553h730q40 0 59 -24t19 -53q0 -30 -19 -54t-59 -24h-823q-18 0 -34.5 7.5t-30 20.5t-21.5 29.5t-8 34.5z M361 1712q0 12 3.5 24.5t13.5 24.5l202 286q38 54 91 54q24 0 47 -13t45 -41l201 -286q9 -12 14 -24t4 -24q0 -24 -17 -40t-42 -16q-16 0 -33 8.5t-33 27.5l-185 249l-186 -249q-16 -20 -34 -28.5t-34 -8.5q-24 0 -40.5 16t-16.5 40z" />
<glyph unicode="&#xcb;" horiz-adv-x="1342" d="M213 92v1342q0 17 6.5 33.5t18.5 29.5t28 21t36 8h798q40 0 59 -24t19 -53q0 -30 -19 -54t-59 -24h-700v-509h666q40 0 59.5 -24t19.5 -53t-20 -53t-59 -24h-666v-553h730q40 0 59 -24t19 -53q0 -30 -19 -54t-59 -24h-823q-18 0 -34.5 7.5t-30 20.5t-21.5 29.5t-8 34.5z M359 1864q0 19 7 37t21 32t34.5 22.5t47.5 8.5q26 0 47 -8.5t35 -22.5t21.5 -32t7.5 -37t-7.5 -37t-21.5 -32.5t-35 -23t-47 -8.5q-27 0 -47.5 8.5t-34.5 23t-21 32.5t-7 37zM762 1864q0 19 7.5 37t21.5 32t34.5 22.5t47.5 8.5t47.5 -8.5t34 -22.5t21 -32t7.5 -37t-7.5 -37 t-21 -32.5t-34 -23t-47.5 -8.5t-47.5 8.5t-34.5 23t-21.5 32.5t-7.5 37z" />
<glyph unicode="&#xcc;" horiz-adv-x="633" d="M100 1980q0 17 8.5 33.5t22 30t31 22t35.5 8.5q15 0 28.5 -6t26.5 -21l288 -322q7 -8 10 -17t3 -17q0 -17 -11 -29t-29 -12q-21 0 -44 18l-344 265q-13 9 -18.5 21.5t-6.5 25.5zM223 90v1345q0 22 8 39.5t21.5 28.5t31 17t35.5 6q35 0 64.5 -22.5t29.5 -68.5v-1345 q0 -23 -8 -40t-22 -28t-31 -16.5t-35 -5.5q-36 0 -65 22.5t-29 67.5z" />
<glyph unicode="&#xcd;" horiz-adv-x="633" d="M83 1691q0 7 2.5 16.5t10.5 17.5l287 322q25 28 55 27q18 0 35 -8t31 -21.5t22 -30t8 -33.5q0 -13 -5 -26t-18 -22l-345 -265q-22 -18 -44 -18q-18 0 -28.5 12t-10.5 29zM223 90v1345q0 22 8 39.5t21.5 28.5t31 17t35.5 6q35 0 64.5 -22.5t29.5 -68.5v-1345q0 -23 -8 -40 t-22 -28t-31 -16.5t-35 -5.5q-36 0 -65 22.5t-29 67.5z" />
<glyph unicode="&#xce;" horiz-adv-x="633" d="M7 1712q0 12 3.5 24.5t13.5 24.5l202 286q38 54 91 54q24 0 47 -13t45 -41l201 -286q9 -12 14 -24t4 -24q0 -24 -17 -40t-42 -16q-16 0 -33 8.5t-33 27.5l-185 249l-186 -249q-16 -20 -34 -28.5t-34 -8.5q-24 0 -40.5 16t-16.5 40zM223 90v1345q0 22 8 39.5t21.5 28.5 t31 17t35.5 6q35 0 64.5 -22.5t29.5 -68.5v-1345q0 -23 -8 -40t-22 -28t-31 -16.5t-35 -5.5q-36 0 -65 22.5t-29 67.5z" />
<glyph unicode="&#xcf;" horiz-adv-x="633" d="M5 1864q0 19 7 37t21 32t34.5 22.5t47.5 8.5q26 0 47 -8.5t35 -22.5t21.5 -32t7.5 -37t-7.5 -37t-21.5 -32.5t-35 -23t-47 -8.5q-27 0 -47.5 8.5t-34.5 23t-21 32.5t-7 37zM223 90v1345q0 22 8 39.5t21.5 28.5t31 17t35.5 6q35 0 64.5 -22.5t29.5 -68.5v-1345 q0 -23 -8 -40t-22 -28t-31 -16.5t-35 -5.5q-36 0 -65 22.5t-29 67.5zM408 1864q0 19 7.5 37t21.5 32t34.5 22.5t47.5 8.5t47.5 -8.5t34 -22.5t21 -32t7.5 -37t-7.5 -37t-21 -32.5t-34 -23t-47.5 -8.5t-47.5 8.5t-34.5 23t-21.5 32.5t-7.5 37z" />
<glyph unicode="&#xd0;" horiz-adv-x="1598" d="M0 762q0 26 17 46.5t51 20.5h122v605q0 19 7.5 35.5t20.5 29t30.5 20t37.5 7.5h363q200 0 352 -49.5t256 -146t157 -240t53 -330.5q0 -188 -54.5 -329.5t-159 -237.5t-255.5 -144.5t-344 -48.5h-368q-20 0 -37.5 7.5t-30.5 20t-20.5 29t-7.5 35.5v601h-122 q-34 0 -51 21.5t-17 47.5zM380 150h294q157 0 269 42.5t183 122.5t104.5 193.5t33.5 253.5q0 158 -43.5 274t-126 191.5t-201.5 112t-270 36.5h-243v-547h137q34 0 51.5 -21.5t17.5 -45.5q0 -26 -17.5 -47.5t-51.5 -21.5h-137v-543z" />
<glyph unicode="&#xd1;" horiz-adv-x="1607" d="M193 85v1315q0 30 10 53.5t26.5 39.5t38.5 24.5t46 8.5q31 0 60 -15t53 -47l810 -1221v1197q0 22 7.5 38t20.5 26.5t29 16t33 5.5q16 0 32 -5.5t29 -16t20.5 -26.5t7.5 -38v-1314q0 -30 -11 -53.5t-29 -39.5t-41 -24.5t-49 -8.5q-31 0 -62 15t-54 47l-798 1204v-1181 q0 -22 -8 -37.5t-20.5 -26t-28.5 -16t-34 -5.5q-34 0 -61 21t-27 64zM495 1770q0 10 5 19q22 62 67 100.5t118 38.5q36 0 72 -11t69 -24t63 -24t57 -11q37 0 67 37q31 39 62 39q18 0 29 -11.5t11 -29.5q0 -6 -2 -17q-9 -30 -25 -56t-39 -45.5t-53 -30.5t-66 -11 q-32 0 -65 11.5t-65.5 25t-64 25t-59.5 11.5q-23 0 -43 -10t-38 -32q-13 -16 -28 -23.5t-30 -7.5q-17 0 -29.5 9.5t-12.5 27.5z" />
<glyph unicode="&#xd2;" horiz-adv-x="1708" d="M137 758q0 163 47 309.5t138 251.5t225.5 162.5t307.5 57.5t307 -57.5t224.5 -162.5t137.5 -251.5t47 -309.5q0 -164 -47 -310.5t-137.5 -251t-224.5 -162.5t-307 -58t-307.5 58t-225.5 162.5t-138 251t-47 310.5zM341 758q0 -112 29 -228t91 -204t159.5 -141t234.5 -53 q136 0 233.5 53t160 141t91.5 204t29 228q0 110 -29 226t-91.5 205t-160 142t-233.5 53q-137 0 -234.5 -53t-159.5 -142t-91 -205t-29 -226zM639 1980q0 17 8.5 33.5t22 30t31 22t35.5 8.5q15 0 28.5 -6t26.5 -21l288 -322q7 -8 10 -17t3 -17q0 -17 -11 -29t-29 -12 q-21 0 -44 18l-344 265q-13 9 -18.5 21.5t-6.5 25.5z" />
<glyph unicode="&#xd3;" horiz-adv-x="1708" d="M137 758q0 163 47 309.5t138 251.5t225.5 162.5t307.5 57.5t307 -57.5t224.5 -162.5t137.5 -251.5t47 -309.5q0 -164 -47 -310.5t-137.5 -251t-224.5 -162.5t-307 -58t-307.5 58t-225.5 162.5t-138 251t-47 310.5zM341 758q0 -112 29 -228t91 -204t159.5 -141t234.5 -53 q136 0 233.5 53t160 141t91.5 204t29 228q0 110 -29 226t-91.5 205t-160 142t-233.5 53q-137 0 -234.5 -53t-159.5 -142t-91 -205t-29 -226zM618 1691q0 7 2.5 16.5t10.5 17.5l287 322q25 28 55 27q18 0 35 -8t31 -21.5t22 -30t8 -33.5q0 -13 -5 -26t-18 -22l-345 -265 q-22 -18 -44 -18q-18 0 -28.5 12t-10.5 29z" />
<glyph unicode="&#xd4;" horiz-adv-x="1708" d="M137 758q0 163 47 309.5t138 251.5t225.5 162.5t307.5 57.5t307 -57.5t224.5 -162.5t137.5 -251.5t47 -309.5q0 -164 -47 -310.5t-137.5 -251t-224.5 -162.5t-307 -58t-307.5 58t-225.5 162.5t-138 251t-47 310.5zM341 758q0 -112 29 -228t91 -204t159.5 -141t234.5 -53 q136 0 233.5 53t160 141t91.5 204t29 228q0 110 -29 226t-91.5 205t-160 142t-233.5 53q-137 0 -234.5 -53t-159.5 -142t-91 -205t-29 -226zM544 1712q0 12 3.5 24.5t13.5 24.5l202 286q38 54 91 54q24 0 47 -13t45 -41l201 -286q9 -12 14 -24t4 -24q0 -24 -17 -40t-42 -16 q-16 0 -33 8.5t-33 27.5l-185 249l-186 -249q-16 -20 -34 -28.5t-34 -8.5q-24 0 -40.5 16t-16.5 40z" />
<glyph unicode="&#xd5;" horiz-adv-x="1708" d="M137 758q0 163 47 309.5t138 251.5t225.5 162.5t307.5 57.5t307 -57.5t224.5 -162.5t137.5 -251.5t47 -309.5q0 -164 -47 -310.5t-137.5 -251t-224.5 -162.5t-307 -58t-307.5 58t-225.5 162.5t-138 251t-47 310.5zM341 758q0 -112 29 -228t91 -204t159.5 -141t234.5 -53 q136 0 233.5 53t160 141t91.5 204t29 228q0 110 -29 226t-91.5 205t-160 142t-233.5 53q-137 0 -234.5 -53t-159.5 -142t-91 -205t-29 -226zM546 1770q0 10 5 19q22 62 67 100.5t118 38.5q36 0 72 -11t69 -24t63 -24t57 -11q37 0 67 37q31 39 62 39q18 0 29 -11.5t11 -29.5 q0 -6 -2 -17q-9 -30 -25 -56t-39 -45.5t-53 -30.5t-66 -11q-32 0 -65 11.5t-65.5 25t-64 25t-59.5 11.5q-23 0 -43 -10t-38 -32q-13 -16 -28 -23.5t-30 -7.5q-17 0 -29.5 9.5t-12.5 27.5z" />
<glyph unicode="&#xd6;" horiz-adv-x="1708" d="M137 758q0 163 47 309.5t138 251.5t225.5 162.5t307.5 57.5t307 -57.5t224.5 -162.5t137.5 -251.5t47 -309.5q0 -164 -47 -310.5t-137.5 -251t-224.5 -162.5t-307 -58t-307.5 58t-225.5 162.5t-138 251t-47 310.5zM341 758q0 -112 29 -228t91 -204t159.5 -141t234.5 -53 q136 0 233.5 53t160 141t91.5 204t29 228q0 110 -29 226t-91.5 205t-160 142t-233.5 53q-137 0 -234.5 -53t-159.5 -142t-91 -205t-29 -226zM542 1864q0 19 7 37t21 32t34.5 22.5t47.5 8.5q26 0 47 -8.5t35 -22.5t21.5 -32t7.5 -37t-7.5 -37t-21.5 -32.5t-35 -23t-47 -8.5 q-27 0 -47.5 8.5t-34.5 23t-21 32.5t-7 37zM945 1864q0 19 7.5 37t21.5 32t34.5 22.5t47.5 8.5t47.5 -8.5t34 -22.5t21 -32t7.5 -37t-7.5 -37t-21 -32.5t-34 -23t-47.5 -8.5t-47.5 8.5t-34.5 23t-21.5 32.5t-7.5 37z" />
<glyph unicode="&#xd7;" horiz-adv-x="1433" d="M309 197q0 12 5.5 25t17.5 25l282 283l-273 272q-21 22 -21 49q0 15 6.5 28.5t17 25t25 18t29.5 6.5q27 0 48 -22l273 -272l283 282q22 22 50 22q29 0 51.5 -21.5t22.5 -50.5q0 -12 -5.5 -25.5t-17.5 -25.5l-282 -283l271 -271q11 -11 15.5 -23t4.5 -24q0 -31 -23 -55 t-54 -24q-26 0 -47 21l-272 271l-283 -282q-21 -22 -49 -22q-29 0 -52 22t-23 51z" />
<glyph unicode="&#xd8;" horiz-adv-x="1708" d="M137 762q0 179 47 325.5t138 251t225.5 162t307.5 57.5q63 0 119 -8t108 -23l44 106q10 24 30 36t41 12q28 0 50.5 -17.5t22.5 -48.5q0 -15 -6 -32l-46 -114q86 -46 152 -115.5t110.5 -160t67.5 -199t23 -232.5q0 -178 -47 -324.5t-137.5 -251t-224.5 -162t-307 -57.5 q-117 0 -216 28l-47 -116q-11 -25 -29.5 -36.5t-39.5 -11.5q-28 0 -49 17.5t-21 48.5q0 8 1 16t5 16l47 118q-90 45 -159 115t-115.5 161.5t-70.5 202t-24 236.5zM338 762q0 -81 14.5 -161.5t44.5 -152t77 -131t113 -98.5l428 1159q-71 25 -160 25q-138 0 -236 -53 t-160.5 -142t-91.5 -205t-29 -241zM705 142q68 -20 150 -20q137 0 235 53t160.5 141t92 204.5t29.5 241.5q0 80 -14 158t-43 148t-73.5 128.5t-106.5 99.5z" />
<glyph unicode="&#xd9;" horiz-adv-x="1594" d="M202 531v904q0 22 8 39.5t21.5 28.5t31 17t36.5 6q35 0 64.5 -22.5t29.5 -68.5v-900q0 -104 34.5 -179.5t91.5 -125t129.5 -73.5t148.5 -24t149 24t130 73.5t92 125t35 179.5v900q0 22 8 39.5t21 28.5t31 17t36 6q35 0 64.5 -22.5t29.5 -68.5v-904q0 -142 -49.5 -245.5 t-132.5 -172.5t-190.5 -103t-223.5 -34q-115 0 -222.5 34t-190 103t-132.5 172.5t-50 245.5zM582 1980q0 17 8.5 33.5t22 30t31 22t35.5 8.5q15 0 28.5 -6t26.5 -21l288 -322q7 -8 10 -17t3 -17q0 -17 -11 -29t-29 -12q-21 0 -44 18l-344 265q-13 9 -18.5 21.5t-6.5 25.5z " />
<glyph unicode="&#xda;" horiz-adv-x="1594" d="M202 531v904q0 22 8 39.5t21.5 28.5t31 17t36.5 6q35 0 64.5 -22.5t29.5 -68.5v-900q0 -104 34.5 -179.5t91.5 -125t129.5 -73.5t148.5 -24t149 24t130 73.5t92 125t35 179.5v900q0 22 8 39.5t21 28.5t31 17t36 6q35 0 64.5 -22.5t29.5 -68.5v-904q0 -142 -49.5 -245.5 t-132.5 -172.5t-190.5 -103t-223.5 -34q-115 0 -222.5 34t-190 103t-132.5 172.5t-50 245.5zM561 1691q0 7 2.5 16.5t10.5 17.5l287 322q25 28 55 27q18 0 35 -8t31 -21.5t22 -30t8 -33.5q0 -13 -5 -26t-18 -22l-345 -265q-22 -18 -44 -18q-18 0 -28.5 12t-10.5 29z" />
<glyph unicode="&#xdb;" horiz-adv-x="1594" d="M202 531v904q0 22 8 39.5t21.5 28.5t31 17t36.5 6q35 0 64.5 -22.5t29.5 -68.5v-900q0 -104 34.5 -179.5t91.5 -125t129.5 -73.5t148.5 -24t149 24t130 73.5t92 125t35 179.5v900q0 22 8 39.5t21 28.5t31 17t36 6q35 0 64.5 -22.5t29.5 -68.5v-904q0 -142 -49.5 -245.5 t-132.5 -172.5t-190.5 -103t-223.5 -34q-115 0 -222.5 34t-190 103t-132.5 172.5t-50 245.5zM487 1712q0 12 3.5 24.5t13.5 24.5l202 286q38 54 91 54q24 0 47 -13t45 -41l201 -286q9 -12 14 -24t4 -24q0 -24 -17 -40t-42 -16q-16 0 -33 8.5t-33 27.5l-185 249l-186 -249 q-16 -20 -34 -28.5t-34 -8.5q-24 0 -40.5 16t-16.5 40z" />
<glyph unicode="&#xdc;" horiz-adv-x="1594" d="M202 531v904q0 22 8 39.5t21.5 28.5t31 17t36.5 6q35 0 64.5 -22.5t29.5 -68.5v-900q0 -104 34.5 -179.5t91.5 -125t129.5 -73.5t148.5 -24t149 24t130 73.5t92 125t35 179.5v900q0 22 8 39.5t21 28.5t31 17t36 6q35 0 64.5 -22.5t29.5 -68.5v-904q0 -142 -49.5 -245.5 t-132.5 -172.5t-190.5 -103t-223.5 -34q-115 0 -222.5 34t-190 103t-132.5 172.5t-50 245.5zM485 1864q0 19 7 37t21 32t34.5 22.5t47.5 8.5q26 0 47 -8.5t35 -22.5t21.5 -32t7.5 -37t-7.5 -37t-21.5 -32.5t-35 -23t-47 -8.5q-27 0 -47.5 8.5t-34.5 23t-21 32.5t-7 37z M888 1864q0 19 7.5 37t21.5 32t34.5 22.5t47.5 8.5t47.5 -8.5t34 -22.5t21 -32t7.5 -37t-7.5 -37t-21 -32.5t-34 -23t-47.5 -8.5t-47.5 8.5t-34.5 23t-21.5 32.5t-7.5 37z" />
<glyph unicode="&#xdd;" horiz-adv-x="1367" d="M80 1438q0 18 9 34t24.5 28t34.5 19t38 7q24 0 45.5 -11.5t34.5 -35.5l432 -681h2l432 682q14 24 34.5 35t42.5 11q16 0 32 -5.5t28.5 -15t20 -23t7.5 -29.5q-1 -10 -4 -20t-9 -21l-503 -763v-558q0 -23 -8 -40t-22 -28t-31 -17t-35 -6q-37 0 -66 23t-29 68v553l-497 754 q-6 10 -9 20t-4 20zM443 1690q0 7 2.5 16.5t10.5 17.5l287 322q25 28 55 27q18 0 35 -8t31 -21.5t22 -30t8 -33.5q0 -13 -5 -26t-18 -22l-345 -265q-22 -18 -44 -18q-18 0 -28.5 12t-10.5 29z" />
<glyph unicode="&#xde;" horiz-adv-x="1367" d="M209 89v1355q0 45 29.5 67.5t64.5 22.5q18 0 35 -5.5t31 -17t22 -28t8 -39.5v-127h290q76 0 150.5 -8.5t142 -29t124.5 -53.5t99.5 -81.5t66.5 -114.5t24 -152t-24 -152.5t-67 -115t-101.5 -82t-127 -53t-143.5 -28t-152 -8.5h-282v-350q0 -23 -8 -40t-22 -28t-31 -16.5 t-34 -5.5q-36 0 -65.5 22.5t-29.5 67.5zM399 588h316q77 0 146.5 13.5t122 47t83 89.5t30.5 140q0 85 -30.5 140.5t-82.5 89t-120.5 46.5t-145.5 13h-319v-579z" />
<glyph unicode="&#xdf;" horiz-adv-x="1370" d="M180 82v979q0 113 29 205t87.5 156.5t149.5 100t216 35.5q81 0 156 -21.5t133.5 -63.5t93.5 -104.5t35 -143.5q0 -43 -19 -80.5t-48 -70.5t-61.5 -63t-61.5 -57.5t-47.5 -54t-18.5 -52.5q0 -49 34 -83.5t86 -64.5t112 -60.5t112 -72t86 -98.5t34 -140q0 -85 -31 -152 t-84.5 -112.5t-124.5 -69.5t-150 -24q-110 0 -192.5 40.5t-126.5 123.5q-11 20 -11 39q0 31 23.5 51.5t51.5 20.5q16 0 30.5 -7.5t26.5 -24.5q32 -51 79 -80t112 -29q101 0 161.5 53.5t60.5 163.5q0 59 -35 100.5t-87.5 75.5t-113 65t-112.5 68.5t-87 86t-35 117.5 q0 46 19.5 83t47.5 69.5t62 60.5t62 56.5t47.5 59t19.5 66.5q0 51 -22.5 88.5t-59 61.5t-82.5 35.5t-93 11.5q-85 0 -141.5 -35t-90 -92.5t-47 -128t-14.5 -141.5v-947q0 -40 -27.5 -61t-60.5 -21q-31 0 -57 20.5t-26 61.5z" />
<glyph unicode="&#xe0;" horiz-adv-x="1116" d="M75 295q0 99 43.5 166t121.5 108t187.5 59t242.5 18q28 0 59.5 -1t61.5 -2v93q0 61 -18 103t-50 66.5t-77 35t-99 10.5q-55 0 -98 -6t-79.5 -19.5t-68 -29t-63.5 -35.5q-19 -10 -38 -10q-27 0 -45 18t-18 43q0 24 21 45q67 64 167.5 95.5t226.5 31.5q93 0 167.5 -21 t127.5 -65.5t81.5 -113t28.5 -164.5l-1 -644q0 -37 -26.5 -56.5t-57.5 -19.5q-30 0 -55 17.5t-25 55.5v98q-23 -47 -59.5 -83.5t-83.5 -61t-101 -37.5t-108 -13q-77 0 -143.5 21t-115.5 62.5t-77.5 100.5t-28.5 135zM248 300q0 -50 18.5 -84.5t49.5 -58t73 -35.5t89 -13 q63 1 119 21.5t97.5 58t66.5 96t29 140.5v93q-48 -2 -106.5 -1.5t-119 -3t-117 -14t-101 -34t-71.5 -63.5t-27 -102zM329 1510q0 17 8.5 33.5t22 30t31 22t35.5 8.5q15 0 28.5 -6t26.5 -21l288 -322q7 -8 10 -17t3 -17q0 -17 -11 -29t-29 -12q-21 0 -44 18l-344 265 q-13 9 -18.5 21.5t-6.5 25.5z" />
<glyph unicode="&#xe1;" horiz-adv-x="1116" d="M75 295q0 99 43.5 166t121.5 108t187.5 59t242.5 18q28 0 59.5 -1t61.5 -2v93q0 61 -18 103t-50 66.5t-77 35t-99 10.5q-55 0 -98 -6t-79.5 -19.5t-68 -29t-63.5 -35.5q-19 -10 -38 -10q-27 0 -45 18t-18 43q0 24 21 45q67 64 167.5 95.5t226.5 31.5q93 0 167.5 -21 t127.5 -65.5t81.5 -113t28.5 -164.5l-1 -644q0 -37 -26.5 -56.5t-57.5 -19.5q-30 0 -55 17.5t-25 55.5v98q-23 -47 -59.5 -83.5t-83.5 -61t-101 -37.5t-108 -13q-77 0 -143.5 21t-115.5 62.5t-77.5 100.5t-28.5 135zM248 300q0 -50 18.5 -84.5t49.5 -58t73 -35.5t89 -13 q63 1 119 21.5t97.5 58t66.5 96t29 140.5v93q-48 -2 -106.5 -1.5t-119 -3t-117 -14t-101 -34t-71.5 -63.5t-27 -102zM333 1221q0 7 2.5 16.5t10.5 17.5l287 322q25 28 55 27q18 0 35 -8t31 -21.5t22 -30t8 -33.5q0 -13 -5 -26t-18 -22l-345 -265q-22 -18 -44 -18 q-18 0 -28.5 12t-10.5 29z" />
<glyph unicode="&#xe2;" horiz-adv-x="1116" d="M75 295q0 99 43.5 166t121.5 108t187.5 59t242.5 18q28 0 59.5 -1t61.5 -2v93q0 61 -18 103t-50 66.5t-77 35t-99 10.5q-55 0 -98 -6t-79.5 -19.5t-68 -29t-63.5 -35.5q-19 -10 -38 -10q-27 0 -45 18t-18 43q0 24 21 45q67 64 167.5 95.5t226.5 31.5q93 0 167.5 -21 t127.5 -65.5t81.5 -113t28.5 -164.5l-1 -644q0 -37 -26.5 -56.5t-57.5 -19.5q-30 0 -55 17.5t-25 55.5v98q-23 -47 -59.5 -83.5t-83.5 -61t-101 -37.5t-108 -13q-77 0 -143.5 21t-115.5 62.5t-77.5 100.5t-28.5 135zM247 1242q0 12 3.5 24.5t13.5 24.5l202 286q38 54 91 54 q24 0 47 -13t45 -41l201 -286q9 -12 14 -24t4 -24q0 -24 -17 -40t-42 -16q-16 0 -33 8.5t-33 27.5l-185 249l-186 -249q-16 -20 -34 -28.5t-34 -8.5q-24 0 -40.5 16t-16.5 40zM248 300q0 -50 18.5 -84.5t49.5 -58t73 -35.5t89 -13q63 1 119 21.5t97.5 58t66.5 96t29 140.5 v93q-48 -2 -106.5 -1.5t-119 -3t-117 -14t-101 -34t-71.5 -63.5t-27 -102z" />
<glyph unicode="&#xe3;" horiz-adv-x="1116" d="M75 295q0 99 43.5 166t121.5 108t187.5 59t242.5 18q28 0 59.5 -1t61.5 -2v93q0 61 -18 103t-50 66.5t-77 35t-99 10.5q-55 0 -98 -6t-79.5 -19.5t-68 -29t-63.5 -35.5q-19 -10 -38 -10q-27 0 -45 18t-18 43q0 24 21 45q67 64 167.5 95.5t226.5 31.5q93 0 167.5 -21 t127.5 -65.5t81.5 -113t28.5 -164.5l-1 -644q0 -37 -26.5 -56.5t-57.5 -19.5q-30 0 -55 17.5t-25 55.5v98q-23 -47 -59.5 -83.5t-83.5 -61t-101 -37.5t-108 -13q-77 0 -143.5 21t-115.5 62.5t-77.5 100.5t-28.5 135zM248 300q0 -50 18.5 -84.5t49.5 -58t73 -35.5t89 -13 q63 1 119 21.5t97.5 58t66.5 96t29 140.5v93q-48 -2 -106.5 -1.5t-119 -3t-117 -14t-101 -34t-71.5 -63.5t-27 -102zM249 1300q0 10 5 19q22 62 67 100.5t118 38.5q36 0 72 -11t69 -24t63 -24t57 -11q37 0 67 37q31 39 62 39q18 0 29 -11.5t11 -29.5q0 -6 -2 -17 q-9 -30 -25 -56t-39 -45.5t-53 -30.5t-66 -11q-32 0 -65 11.5t-65.5 25t-64 25t-59.5 11.5q-23 0 -43 -10t-38 -32q-13 -16 -28 -23.5t-30 -7.5q-17 0 -29.5 9.5t-12.5 27.5z" />
<glyph unicode="&#xe4;" horiz-adv-x="1116" d="M75 295q0 99 43.5 166t121.5 108t187.5 59t242.5 18q28 0 59.5 -1t61.5 -2v93q0 61 -18 103t-50 66.5t-77 35t-99 10.5q-55 0 -98 -6t-79.5 -19.5t-68 -29t-63.5 -35.5q-19 -10 -38 -10q-27 0 -45 18t-18 43q0 24 21 45q67 64 167.5 95.5t226.5 31.5q93 0 167.5 -21 t127.5 -65.5t81.5 -113t28.5 -164.5l-1 -644q0 -37 -26.5 -56.5t-57.5 -19.5q-30 0 -55 17.5t-25 55.5v98q-23 -47 -59.5 -83.5t-83.5 -61t-101 -37.5t-108 -13q-77 0 -143.5 21t-115.5 62.5t-77.5 100.5t-28.5 135zM246 1394q0 19 7 37t21 32t34.5 22.5t47.5 8.5 q26 0 47 -8.5t35 -22.5t21.5 -32t7.5 -37t-7.5 -37t-21.5 -32.5t-35 -23t-47 -8.5q-27 0 -47.5 8.5t-34.5 23t-21 32.5t-7 37zM248 300q0 -50 18.5 -84.5t49.5 -58t73 -35.5t89 -13q63 1 119 21.5t97.5 58t66.5 96t29 140.5v93q-48 -2 -106.5 -1.5t-119 -3t-117 -14 t-101 -34t-71.5 -63.5t-27 -102zM649 1394q0 19 7.5 37t21.5 32t34.5 22.5t47.5 8.5t47.5 -8.5t34 -22.5t21 -32t7.5 -37t-7.5 -37t-21 -32.5t-34 -23t-47.5 -8.5t-47.5 8.5t-34.5 23t-21.5 32.5t-7.5 37z" />
<glyph unicode="&#xe5;" horiz-adv-x="1116" d="M75 295q0 99 43.5 166t121.5 108t187.5 59t242.5 18q28 0 59.5 -1t61.5 -2v93q0 61 -18 103t-50 66.5t-77 35t-99 10.5q-55 0 -98 -6t-79.5 -19.5t-68 -29t-63.5 -35.5q-19 -10 -38 -10q-27 0 -45 18t-18 43q0 24 21 45q67 64 167.5 95.5t226.5 31.5q93 0 167.5 -21 t127.5 -65.5t81.5 -113t28.5 -164.5l-1 -644q0 -37 -26.5 -56.5t-57.5 -19.5q-30 0 -55 17.5t-25 55.5v98q-23 -47 -59.5 -83.5t-83.5 -61t-101 -37.5t-108 -13q-77 0 -143.5 21t-115.5 62.5t-77.5 100.5t-28.5 135zM248 300q0 -50 18.5 -84.5t49.5 -58t73 -35.5t89 -13 q63 1 119 21.5t97.5 58t66.5 96t29 140.5v93q-48 -2 -106.5 -1.5t-119 -3t-117 -14t-101 -34t-71.5 -63.5t-27 -102zM355 1378q0 40 16.5 75t44 62t64.5 42.5t78 15.5q42 0 78 -15.5t64 -42.5t44 -62t16 -75q0 -39 -16 -74.5t-44 -62.5t-64 -43t-78 -16q-41 0 -78 16 t-64.5 43t-44 62.5t-16.5 74.5zM440 1378q0 -21 10 -41.5t26.5 -36.5t37.5 -25.5t44 -9.5q21 0 42.5 9.5t38 25.5t27 36.5t10.5 41.5q0 22 -10.5 42t-26.5 36t-37.5 26t-43.5 10q-23 0 -44 -9.5t-37.5 -25.5t-26.5 -36t-10 -43z" />
<glyph unicode="&#xe6;" horiz-adv-x="1817" d="M75 295q0 99 43.5 167.5t121.5 110.5t187.5 61.5t242.5 19.5q28 0 59.5 -1t61.5 -2v87q0 61 -18 103t-50 66.5t-77 35t-99 10.5q-55 0 -98 -7t-79.5 -19t-68 -29t-63.5 -37q-21 -11 -38 -11q-26 0 -44 18.5t-18 43.5q0 24 20 45q66 65 167 99.5t227 34.5q131 0 219 -46 t129 -146q59 86 147.5 139t208.5 53q115 0 198.5 -40.5t138 -111.5t81 -168t29.5 -208q0 -25 -15.5 -46.5t-51.5 -21.5h-669q1 -80 19 -151t55.5 -123.5t96.5 -83t145 -30.5q40 0 80 9t76.5 24.5t68.5 34.5t57 38q12 8 23.5 12t20.5 4q24 0 38.5 -16t14.5 -39q0 -26 -22 -51 q-25 -31 -66 -59t-92.5 -48.5t-113.5 -33t-130 -12.5q-66 0 -122.5 17.5t-102 50t-80.5 76.5t-61 99q-31 -66 -79 -112t-105.5 -75t-119.5 -42.5t-120 -13.5q-80 0 -148 22t-118 63.5t-78.5 102t-28.5 137.5zM248 300q0 -51 18.5 -88.5t49.5 -62.5t73 -37t89 -14 q63 2 119 22.5t97.5 61.5t66.5 101t29 142v100q-48 -2 -106.5 -2t-119 -4t-117 -15.5t-101 -36t-71.5 -65t-27 -102.5zM970 620h567q-6 73 -24.5 136t-53 108.5t-84 71t-117.5 25.5q-67 0 -118.5 -28t-87.5 -75t-56 -109t-26 -129z" />
<glyph unicode="&#xe7;" horiz-adv-x="1103" d="M96 531q0 112 34 212t98.5 176t159 120.5t214.5 44.5q51 0 108 -9.5t105 -28t80 -44t32 -57.5q0 -25 -16 -44t-44 -19q-13 0 -29 6q-107 62 -221 62q-76 0 -138.5 -29.5t-107.5 -83.5t-69.5 -130.5t-24.5 -173.5q0 -77 16.5 -151.5t55.5 -137t106 -99t161 -36.5 q59 0 118 18.5t124 51.5q16 6 30 6q26 0 41.5 -18t15.5 -43q0 -32 -35.5 -60t-88 -46.5t-114.5 -30t-114 -11.5q-122 0 -214.5 44t-155.5 120t-95 177t-32 214zM335 -340q0 13 7.5 23.5t20.5 10.5q5 0 14 -3q40 -15 82 -26.5t90 -11.5q58 0 79 23t21 66q0 22 -10 36.5 t-27 24t-38 13.5t-43 4q-4 0 -7.5 -0.5t-6.5 -0.5q-20 0 -29 9t-9 23q0 8 3 17l49 142h63l-37 -120q42 2 82.5 -3t73 -21t52 -46.5t19.5 -80.5q0 -41 -17.5 -70.5t-46.5 -49t-65.5 -29t-72.5 -9.5q-45 0 -89 5.5t-79 16.5t-57 25.5t-22 31.5z" />
<glyph unicode="&#xe8;" horiz-adv-x="1232" d="M104 531q0 110 32.5 210t96.5 176.5t159 121.5t219 45q129 0 224 -39.5t156.5 -109t92 -165t33.5 -207.5q0 -25 -15.5 -43.5t-53.5 -18.5h-765q4 -103 30 -175t78 -120.5t114.5 -72.5t136.5 -24q78 0 158 28.5t160 82.5q11 9 22.5 12t20.5 3q25 0 40 -16t15 -38 q0 -12 -5.5 -25.5t-18.5 -24.5q-43 -42 -93 -71.5t-102.5 -47.5t-106 -27t-104.5 -9q-108 0 -204 38t-167 110t-112 175t-41 232zM288 614h661q-5 75 -28 137t-65 107t-102.5 69t-140.5 24q-70 0 -127.5 -26.5t-99.5 -73t-67.5 -107.5t-30.5 -130zM411 1510q0 17 8.5 33.5 t22 30t31 22t35.5 8.5q15 0 28.5 -6t26.5 -21l288 -322q7 -8 10 -17t3 -17q0 -17 -11 -29t-29 -12q-21 0 -44 18l-344 265q-13 9 -18.5 21.5t-6.5 25.5z" />
<glyph unicode="&#xe9;" horiz-adv-x="1232" d="M104 531q0 110 32.5 210t96.5 176.5t159 121.5t219 45q129 0 224 -39.5t156.5 -109t92 -165t33.5 -207.5q0 -25 -15.5 -43.5t-53.5 -18.5h-765q4 -103 30 -175t78 -120.5t114.5 -72.5t136.5 -24q78 0 158 28.5t160 82.5q11 9 22.5 12t20.5 3q25 0 40 -16t15 -38 q0 -12 -5.5 -25.5t-18.5 -24.5q-43 -42 -93 -71.5t-102.5 -47.5t-106 -27t-104.5 -9q-108 0 -204 38t-167 110t-112 175t-41 232zM288 614h661q-5 75 -28 137t-65 107t-102.5 69t-140.5 24q-70 0 -127.5 -26.5t-99.5 -73t-67.5 -107.5t-30.5 -130zM388 1221q0 7 2.5 16.5 t10.5 17.5l287 322q25 28 55 27q18 0 35 -8t31 -21.5t22 -30t8 -33.5q0 -13 -5 -26t-18 -22l-345 -265q-22 -18 -44 -18q-18 0 -28.5 12t-10.5 29z" />
<glyph unicode="&#xea;" horiz-adv-x="1232" d="M104 531q0 110 32.5 210t96.5 176.5t159 121.5t219 45q129 0 224 -39.5t156.5 -109t92 -165t33.5 -207.5q0 -25 -15.5 -43.5t-53.5 -18.5h-765q4 -103 30 -175t78 -120.5t114.5 -72.5t136.5 -24q78 0 158 28.5t160 82.5q11 9 22.5 12t20.5 3q25 0 40 -16t15 -38 q0 -12 -5.5 -25.5t-18.5 -24.5q-43 -42 -93 -71.5t-102.5 -47.5t-106 -27t-104.5 -9q-108 0 -204 38t-167 110t-112 175t-41 232zM288 614h661q-5 75 -28 137t-65 107t-102.5 69t-140.5 24q-70 0 -127.5 -26.5t-99.5 -73t-67.5 -107.5t-30.5 -130zM305 1242q0 12 3.5 24.5 t13.5 24.5l202 286q38 54 91 54q24 0 47 -13t45 -41l201 -286q9 -12 14 -24t4 -24q0 -24 -17 -40t-42 -16q-16 0 -33 8.5t-33 27.5l-185 249l-186 -249q-16 -20 -34 -28.5t-34 -8.5q-24 0 -40.5 16t-16.5 40z" />
<glyph unicode="&#xeb;" horiz-adv-x="1232" d="M104 531q0 110 32.5 210t96.5 176.5t159 121.5t219 45q129 0 224 -39.5t156.5 -109t92 -165t33.5 -207.5q0 -25 -15.5 -43.5t-53.5 -18.5h-765q4 -103 30 -175t78 -120.5t114.5 -72.5t136.5 -24q78 0 158 28.5t160 82.5q11 9 22.5 12t20.5 3q25 0 40 -16t15 -38 q0 -12 -5.5 -25.5t-18.5 -24.5q-43 -42 -93 -71.5t-102.5 -47.5t-106 -27t-104.5 -9q-108 0 -204 38t-167 110t-112 175t-41 232zM288 614h661q-5 75 -28 137t-65 107t-102.5 69t-140.5 24q-70 0 -127.5 -26.5t-99.5 -73t-67.5 -107.5t-30.5 -130zM304 1394q0 19 7 37t21 32 t34.5 22.5t47.5 8.5q26 0 47 -8.5t35 -22.5t21.5 -32t7.5 -37t-7.5 -37t-21.5 -32.5t-35 -23t-47 -8.5q-27 0 -47.5 8.5t-34.5 23t-21 32.5t-7 37zM707 1394q0 19 7.5 37t21.5 32t34.5 22.5t47.5 8.5t47.5 -8.5t34 -22.5t21 -32t7.5 -37t-7.5 -37t-21 -32.5t-34 -23 t-47.5 -8.5t-47.5 8.5t-34.5 23t-21.5 32.5t-7.5 37z" />
<glyph unicode="&#xec;" horiz-adv-x="507" d="M41 1510q0 17 8.5 33.5t22 30t31 22t35.5 8.5q15 0 28.5 -6t26.5 -21l288 -322q7 -8 10 -17t3 -17q0 -17 -11 -29t-29 -12q-21 0 -44 18l-344 265q-13 9 -18.5 21.5t-6.5 25.5zM168 87v888q0 43 27.5 64t59.5 21q16 0 31 -5t26.5 -16t19 -27t7.5 -37v-888 q0 -43 -27.5 -65t-60.5 -22q-32 0 -57.5 21t-25.5 66z" />
<glyph unicode="&#xed;" horiz-adv-x="507" d="M19 1221q0 7 2.5 16.5t10.5 17.5l287 322q25 28 55 27q18 0 35 -8t31 -21.5t22 -30t8 -33.5q0 -13 -5 -26t-18 -22l-345 -265q-22 -18 -44 -18q-18 0 -28.5 12t-10.5 29zM168 87v888q0 43 27.5 64t59.5 21q16 0 31 -5t26.5 -16t19 -27t7.5 -37v-888q0 -43 -27.5 -65 t-60.5 -22q-32 0 -57.5 21t-25.5 66z" />
<glyph unicode="&#xee;" horiz-adv-x="507" d="M-53 1242q0 12 3.5 24.5t13.5 24.5l202 286q38 54 91 54q24 0 47 -13t45 -41l201 -286q9 -12 14 -24t4 -24q0 -24 -17 -40t-42 -16q-16 0 -33 8.5t-33 27.5l-185 249l-186 -249q-16 -20 -34 -28.5t-34 -8.5q-24 0 -40.5 16t-16.5 40zM168 87v888q0 43 27.5 64t59.5 21 q16 0 31 -5t26.5 -16t19 -27t7.5 -37v-888q0 -43 -27.5 -65t-60.5 -22q-32 0 -57.5 21t-25.5 66z" />
<glyph unicode="&#xef;" horiz-adv-x="507" d="M-55 1394q0 19 7 37t21 32t34.5 22.5t47.5 8.5q26 0 47 -8.5t35 -22.5t21.5 -32t7.5 -37t-7.5 -37t-21.5 -32.5t-35 -23t-47 -8.5q-27 0 -47.5 8.5t-34.5 23t-21 32.5t-7 37zM168 87v888q0 43 27.5 64t59.5 21q16 0 31 -5t26.5 -16t19 -27t7.5 -37v-888q0 -43 -27.5 -65 t-60.5 -22q-32 0 -57.5 21t-25.5 66zM348 1394q0 19 7.5 37t21.5 32t34.5 22.5t47.5 8.5t47.5 -8.5t34 -22.5t21 -32t7.5 -37t-7.5 -37t-21 -32.5t-34 -23t-47.5 -8.5t-47.5 8.5t-34.5 23t-21.5 32.5t-7.5 37z" />
<glyph unicode="&#xf0;" d="M95 469q0 106 31.5 194.5t92 152.5t148.5 99.5t199 35.5q64 0 124 -14t110.5 -42t91 -70.5t66.5 -100.5h4q0 85 -10.5 188.5t-39.5 213.5h-234q-34 0 -51 20.5t-17 45.5t17 46t51 21h188q-25 62 -62 124.5t-83 115.5q-12 14 -17 28.5t-5 27.5q0 33 25.5 55.5t60.5 22.5 q40 0 80.5 -37.5t77.5 -93t68 -121.5t53 -122h185q34 0 50.5 -20.5t16.5 -45.5t-17 -46t-50 -21h-144q28 -120 40 -239t12 -225q0 -137 -27.5 -262.5t-92.5 -222.5t-173.5 -154.5t-268.5 -57.5q-117 0 -209.5 38.5t-157 106t-99 159.5t-34.5 200zM287 458q0 -75 21.5 -138 t62.5 -108.5t101.5 -71.5t139.5 -26q71 0 130 27.5t102 73t67 106.5t24 128q0 79 -22.5 146t-67 116.5t-109 77t-149.5 27.5q-80 0 -136.5 -29t-93 -79t-53.5 -114.5t-17 -135.5z" />
<glyph unicode="&#xf1;" horiz-adv-x="1239" d="M166 81v900q0 39 27 58.5t60 19.5q57 0 75 -42.5t9 -132.5q21 48 58.5 83t85.5 61.5t102.5 41t109.5 14.5q77 0 145.5 -23.5t121 -74t83 -128.5t30.5 -188v-589q0 -40 -27 -60.5t-59 -20.5q-33 0 -59 20.5t-26 60.5v603q0 69 -20.5 118.5t-54.5 83t-78 49.5t-92 16 q-66 0 -124 -21.5t-102 -60t-69 -102.5t-25 -151v-535q0 -40 -27.5 -60.5t-59.5 -20.5t-58 20.5t-26 60.5zM311 1300q0 10 5 19q22 62 67 100.5t118 38.5q36 0 72 -11t69 -24t63 -24t57 -11q37 0 67 37q31 39 62 39q18 0 29 -11.5t11 -29.5q0 -6 -2 -17q-9 -30 -25 -56 t-39 -45.5t-53 -30.5t-66 -11q-32 0 -65 11.5t-65.5 25t-64 25t-59.5 11.5q-23 0 -43 -10t-38 -32q-13 -16 -28 -23.5t-30 -7.5q-17 0 -29.5 9.5t-12.5 27.5z" />
<glyph unicode="&#xf2;" horiz-adv-x="1243" d="M92 531q0 98 32 199t97.5 180t165 126.5t234.5 47.5q134 0 234.5 -47.5t165.5 -126.5t97 -180t32 -199q0 -101 -32 -201.5t-97 -179t-165.5 -126.5t-234.5 -48q-135 0 -234.5 48t-165 126.5t-97.5 179t-32 201.5zM275 531q0 -69 19.5 -145t61 -137.5t107.5 -100.5 t158 -39q93 0 158.5 39t107 100.5t60.5 137.5t19 145q0 66 -19 142.5t-60.5 138t-107 100.5t-158.5 39q-92 0 -158 -39t-107.5 -100.5t-61 -138t-19.5 -142.5zM405 1510q0 17 8.5 33.5t22 30t31 22t35.5 8.5q15 0 28.5 -6t26.5 -21l288 -322q7 -8 10 -17t3 -17 q0 -17 -11 -29t-29 -12q-21 0 -44 18l-344 265q-13 9 -18.5 21.5t-6.5 25.5z" />
<glyph unicode="&#xf3;" horiz-adv-x="1243" d="M92 531q0 98 32 199t97.5 180t165 126.5t234.5 47.5q134 0 234.5 -47.5t165.5 -126.5t97 -180t32 -199q0 -101 -32 -201.5t-97 -179t-165.5 -126.5t-234.5 -48q-135 0 -234.5 48t-165 126.5t-97.5 179t-32 201.5zM275 531q0 -69 19.5 -145t61 -137.5t107.5 -100.5 t158 -39q93 0 158.5 39t107 100.5t60.5 137.5t19 145q0 66 -19 142.5t-60.5 138t-107 100.5t-158.5 39q-92 0 -158 -39t-107.5 -100.5t-61 -138t-19.5 -142.5zM384 1221q0 7 2.5 16.5t10.5 17.5l287 322q25 28 55 27q18 0 35 -8t31 -21.5t22 -30t8 -33.5q0 -13 -5 -26 t-18 -22l-345 -265q-22 -18 -44 -18q-18 0 -28.5 12t-10.5 29z" />
<glyph unicode="&#xf4;" horiz-adv-x="1243" d="M92 531q0 98 32 199t97.5 180t165 126.5t234.5 47.5q134 0 234.5 -47.5t165.5 -126.5t97 -180t32 -199q0 -101 -32 -201.5t-97 -179t-165.5 -126.5t-234.5 -48q-135 0 -234.5 48t-165 126.5t-97.5 179t-32 201.5zM275 531q0 -69 19.5 -145t61 -137.5t107.5 -100.5 t158 -39q93 0 158.5 39t107 100.5t60.5 137.5t19 145q0 66 -19 142.5t-60.5 138t-107 100.5t-158.5 39q-92 0 -158 -39t-107.5 -100.5t-61 -138t-19.5 -142.5zM311 1242q0 12 3.5 24.5t13.5 24.5l202 286q38 54 91 54q24 0 47 -13t45 -41l201 -286q9 -12 14 -24t4 -24 q0 -24 -17 -40t-42 -16q-16 0 -33 8.5t-33 27.5l-185 249l-186 -249q-16 -20 -34 -28.5t-34 -8.5q-24 0 -40.5 16t-16.5 40z" />
<glyph unicode="&#xf5;" horiz-adv-x="1243" d="M92 531q0 98 32 199t97.5 180t165 126.5t234.5 47.5q134 0 234.5 -47.5t165.5 -126.5t97 -180t32 -199q0 -101 -32 -201.5t-97 -179t-165.5 -126.5t-234.5 -48q-135 0 -234.5 48t-165 126.5t-97.5 179t-32 201.5zM275 531q0 -69 19.5 -145t61 -137.5t107.5 -100.5 t158 -39q93 0 158.5 39t107 100.5t60.5 137.5t19 145q0 66 -19 142.5t-60.5 138t-107 100.5t-158.5 39q-92 0 -158 -39t-107.5 -100.5t-61 -138t-19.5 -142.5zM313 1300q0 10 5 19q22 62 67 100.5t118 38.5q36 0 72 -11t69 -24t63 -24t57 -11q37 0 67 37q31 39 62 39 q18 0 29 -11.5t11 -29.5q0 -6 -2 -17q-9 -30 -25 -56t-39 -45.5t-53 -30.5t-66 -11q-32 0 -65 11.5t-65.5 25t-64 25t-59.5 11.5q-23 0 -43 -10t-38 -32q-13 -16 -28 -23.5t-30 -7.5q-17 0 -29.5 9.5t-12.5 27.5z" />
<glyph unicode="&#xf6;" horiz-adv-x="1243" d="M92 531q0 98 32 199t97.5 180t165 126.5t234.5 47.5q134 0 234.5 -47.5t165.5 -126.5t97 -180t32 -199q0 -101 -32 -201.5t-97 -179t-165.5 -126.5t-234.5 -48q-135 0 -234.5 48t-165 126.5t-97.5 179t-32 201.5zM275 531q0 -69 19.5 -145t61 -137.5t107.5 -100.5 t158 -39q93 0 158.5 39t107 100.5t60.5 137.5t19 145q0 66 -19 142.5t-60.5 138t-107 100.5t-158.5 39q-92 0 -158 -39t-107.5 -100.5t-61 -138t-19.5 -142.5zM309 1394q0 19 7 37t21 32t34.5 22.5t47.5 8.5q26 0 47 -8.5t35 -22.5t21.5 -32t7.5 -37t-7.5 -37t-21.5 -32.5 t-35 -23t-47 -8.5q-27 0 -47.5 8.5t-34.5 23t-21 32.5t-7 37zM712 1394q0 19 7.5 37t21.5 32t34.5 22.5t47.5 8.5t47.5 -8.5t34 -22.5t21 -32t7.5 -37t-7.5 -37t-21 -32.5t-34 -23t-47.5 -8.5t-47.5 8.5t-34.5 23t-21.5 32.5t-7.5 37z" />
<glyph unicode="&#xf7;" horiz-adv-x="1433" d="M162 550q0 28 17 51t51 23h981q34 0 51.5 -23t17.5 -51t-17.5 -50.5t-51.5 -22.5h-981q-34 0 -51 22.5t-17 50.5zM608 90q0 18 7.5 35.5t21.5 31.5t34 22.5t47 8.5t47 -8.5t34 -22.5t21 -31.5t7 -35.5q0 -39 -28 -69.5t-81 -30.5q-54 0 -82 30.5t-28 69.5zM608 1013 q0 20 7.5 37.5t21.5 31t34 22t47 8.5t47 -8.5t34 -22t21 -31t7 -37.5q0 -38 -28 -68.5t-81 -30.5q-54 0 -82 30.5t-28 68.5z" />
<glyph unicode="&#xf8;" horiz-adv-x="1243" d="M92 530q0 107 32 208t97.5 179.5t165 126t234.5 47.5q37 0 71.5 -3.5t66.5 -11.5l54 140q10 24 28.5 35.5t40.5 11.5q25 0 46.5 -17t21.5 -47q0 -13 -6 -29l-55 -144q67 -36 116 -89.5t81 -119t48 -139t16 -148.5q0 -106 -32 -206.5t-97 -179.5t-165.5 -126.5 t-234.5 -47.5q-35 0 -66 4t-60 9l-51 -132q-10 -24 -27 -35t-37 -11q-27 0 -48 17.5t-21 46.5q0 15 6 29l50 130q-71 35 -122 89t-85.5 120t-51 141t-16.5 152zM271 530q0 -48 9 -98.5t28.5 -98t51 -89t73.5 -70.5l272 775q-19 7 -40 9.5t-44 2.5q-93 0 -159.5 -39 t-109 -100.5t-62 -138.5t-19.5 -153zM549 108q34 -8 72 -8q94 0 160 39t108.5 101t61.5 138.5t19 151.5q0 46 -8.5 94.5t-26 95t-46 87t-66.5 70.5z" />
<glyph unicode="&#xf9;" horiz-adv-x="1239" d="M166 391v589q0 41 26.5 60.5t58.5 19.5q33 0 59.5 -19.5t26.5 -60.5v-601q0 -70 13.5 -123.5t46.5 -87t80 -46.5t105 -13q62 0 118 17.5t99 55.5t70.5 95.5t32.5 136.5v566q0 40 27.5 60t59.5 20t58 -19.5t26 -60.5v-900q0 -40 -27 -60t-59 -20q-17 0 -31.5 5t-26.5 14.5 t-19.5 24.5t-7.5 34v97q-22 -47 -59.5 -84t-85.5 -63t-102 -39t-109 -13q-77 0 -145.5 24t-121 74t-83 128.5t-30.5 188.5zM404 1510q0 17 8.5 33.5t22 30t31 22t35.5 8.5q15 0 28.5 -6t26.5 -21l288 -322q7 -8 10 -17t3 -17q0 -17 -11 -29t-29 -12q-21 0 -44 18l-344 265 q-13 9 -18.5 21.5t-6.5 25.5z" />
<glyph unicode="&#xfa;" horiz-adv-x="1239" d="M166 391v589q0 41 26.5 60.5t58.5 19.5q33 0 59.5 -19.5t26.5 -60.5v-601q0 -70 13.5 -123.5t46.5 -87t80 -46.5t105 -13q62 0 118 17.5t99 55.5t70.5 95.5t32.5 136.5v566q0 40 27.5 60t59.5 20t58 -19.5t26 -60.5v-900q0 -40 -27 -60t-59 -20q-17 0 -31.5 5t-26.5 14.5 t-19.5 24.5t-7.5 34v97q-22 -47 -59.5 -84t-85.5 -63t-102 -39t-109 -13q-77 0 -145.5 24t-121 74t-83 128.5t-30.5 188.5zM382 1221q0 7 2.5 16.5t10.5 17.5l287 322q25 28 55 27q18 0 35 -8t31 -21.5t22 -30t8 -33.5q0 -13 -5 -26t-18 -22l-345 -265q-22 -18 -44 -18 q-18 0 -28.5 12t-10.5 29z" />
<glyph unicode="&#xfb;" horiz-adv-x="1239" d="M166 391v589q0 41 26.5 60.5t58.5 19.5q33 0 59.5 -19.5t26.5 -60.5v-601q0 -70 13.5 -123.5t46.5 -87t80 -46.5t105 -13q62 0 118 17.5t99 55.5t70.5 95.5t32.5 136.5v566q0 40 27.5 60t59.5 20t58 -19.5t26 -60.5v-900q0 -40 -27 -60t-59 -20q-17 0 -31.5 5t-26.5 14.5 t-19.5 24.5t-7.5 34v97q-22 -47 -59.5 -84t-85.5 -63t-102 -39t-109 -13q-77 0 -145.5 24t-121 74t-83 128.5t-30.5 188.5zM309 1242q0 12 3.5 24.5t13.5 24.5l202 286q38 54 91 54q24 0 47 -13t45 -41l201 -286q9 -12 14 -24t4 -24q0 -24 -17 -40t-42 -16q-16 0 -33 8.5 t-33 27.5l-185 249l-186 -249q-16 -20 -34 -28.5t-34 -8.5q-24 0 -40.5 16t-16.5 40z" />
<glyph unicode="&#xfc;" horiz-adv-x="1239" d="M166 391v589q0 41 26.5 60.5t58.5 19.5q33 0 59.5 -19.5t26.5 -60.5v-601q0 -70 13.5 -123.5t46.5 -87t80 -46.5t105 -13q62 0 118 17.5t99 55.5t70.5 95.5t32.5 136.5v566q0 40 27.5 60t59.5 20t58 -19.5t26 -60.5v-900q0 -40 -27 -60t-59 -20q-17 0 -31.5 5t-26.5 14.5 t-19.5 24.5t-7.5 34v97q-22 -47 -59.5 -84t-85.5 -63t-102 -39t-109 -13q-77 0 -145.5 24t-121 74t-83 128.5t-30.5 188.5zM308 1394q0 19 7 37t21 32t34.5 22.5t47.5 8.5q26 0 47 -8.5t35 -22.5t21.5 -32t7.5 -37t-7.5 -37t-21.5 -32.5t-35 -23t-47 -8.5q-27 0 -47.5 8.5 t-34.5 23t-21 32.5t-7 37zM711 1394q0 19 7.5 37t21.5 32t34.5 22.5t47.5 8.5t47.5 -8.5t34 -22.5t21 -32t7.5 -37t-7.5 -37t-21 -32.5t-34 -23t-47.5 -8.5t-47.5 8.5t-34.5 23t-21.5 32.5t-7.5 37z" />
<glyph unicode="&#xfd;" horiz-adv-x="1110" d="M51 980q0 17 8 32t22 26t30.5 16.5t35.5 5.5q24 0 45.5 -12.5t33.5 -40.5l331 -806l331 807q12 28 31.5 40.5t42.5 11.5q32 0 59 -21t27 -57q0 -16 -7 -32l-538 -1307q-13 -31 -34 -44.5t-45 -13.5q-16 0 -32 6t-28.5 16t-20 24.5t-7.5 32.5q0 15 6 31l130 316l-413 938 q-8 15 -8 31zM314 1221q0 7 2.5 16.5t10.5 17.5l287 322q25 28 55 27q18 0 35 -8t31 -21.5t22 -30t8 -33.5q0 -13 -5 -26t-18 -22l-345 -265q-22 -18 -44 -18q-18 0 -28.5 12t-10.5 29z" />
<glyph unicode="&#xfe;" horiz-adv-x="1240" d="M148 -281v1728q0 38 27 58t59 20t58.5 -19.5t26.5 -58.5v-559q29 50 71 88t92 64t105 38.5t110 12.5q118 0 203 -46.5t140 -123.5t80.5 -177.5t25.5 -208.5q0 -68 -11 -136.5t-34.5 -132t-59 -117.5t-85 -93.5t-112.5 -62.5t-141 -23q-119 0 -219 53t-170 162v-466 q0 -43 -26.5 -64.5t-57.5 -21.5t-56.5 21.5t-25.5 64.5zM319 550q0 -90 17 -170.5t57 -142.5t107 -97.5t168 -35.5q90 0 147.5 41.5t90.5 106.5t46 142.5t13 149.5q0 74 -16 148t-53 133t-97.5 95.5t-147.5 36.5q-90 0 -153.5 -34t-103 -90t-57.5 -130t-18 -153z" />
<glyph unicode="&#xff;" horiz-adv-x="1109" d="M51 980q0 17 8 32t22 26t30.5 16.5t35.5 5.5q24 0 45.5 -12.5t33.5 -40.5l331 -806l331 807q12 28 31.5 40.5t42.5 11.5q32 0 59 -21t27 -57q0 -16 -7 -32l-538 -1307q-13 -31 -34 -44.5t-45 -13.5q-16 0 -32 6t-28.5 16t-20 24.5t-7.5 32.5q0 15 6 31l130 316l-413 938 q-8 15 -8 31zM243 1394q0 19 7 37t21 32t34.5 22.5t47.5 8.5q26 0 47 -8.5t35 -22.5t21.5 -32t7.5 -37t-7.5 -37t-21.5 -32.5t-35 -23t-47 -8.5q-27 0 -47.5 8.5t-34.5 23t-21 32.5t-7 37zM646 1394q0 19 7.5 37t21.5 32t34.5 22.5t47.5 8.5t47.5 -8.5t34 -22.5t21 -32 t7.5 -37t-7.5 -37t-21 -32.5t-34 -23t-47.5 -8.5t-47.5 8.5t-34.5 23t-21.5 32.5t-7.5 37z" />
<glyph unicode="&#x152;" horiz-adv-x="2137" d="M126 762q0 180 45 326.5t129 250t205.5 160t273.5 56.5q53 0 120 -5t127.5 -10t103 -9.5t46.5 -4.5h720q40 0 60 -23.5t20 -53.5q0 -29 -20 -53t-60 -24h-560v-510h526q40 0 61 -24t21 -54q0 -29 -21 -52.5t-61 -23.5h-526v-555h588q38 0 58.5 -24t20.5 -54 q0 -29 -20.5 -52.5t-58.5 -23.5h-758q-1 0 -21.5 -2t-53.5 -6t-74 -7t-84 -7t-85 -6t-77 -2q-148 0 -268 56.5t-203.5 160.5t-128.5 250t-45 326zM318 763q0 -84 12 -163.5t37 -151t61.5 -132t88 -104t116.5 -68t145 -24.5q84 1 152.5 6t117.5 9.5t75 9t27 5.5v1230 q-1 0 -25.5 4.5t-71.5 8t-116 7.5t-159 4q-80 0 -144.5 -24t-115.5 -68t-88.5 -104t-62.5 -131t-37 -151.5t-12 -162.5z" />
<glyph unicode="&#x153;" horiz-adv-x="1962" d="M91 530q0 107 31 208t93.5 179.5t158 126t224.5 47.5q72 0 133.5 -17.5t111 -49.5t89.5 -76.5t68 -96.5q28 53 66 97.5t85.5 76.5t105 49.5t124.5 17.5q120 0 207 -40.5t143.5 -112t85 -168t31.5 -208.5q0 -25 -15.5 -46.5t-52.5 -21.5h-690q1 -80 19.5 -151t57.5 -123.5 t100.5 -83t150.5 -30.5q38 0 76.5 9t74 24.5t66.5 34.5t56 38q11 8 22.5 12t20.5 4q24 0 38.5 -16t14.5 -39q0 -25 -21 -51q-26 -32 -65 -60t-90 -49t-111 -33.5t-127 -12.5q-68 0 -124.5 18t-103.5 51t-84 78t-64 101q-29 -54 -68 -99t-88.5 -78t-110 -51t-132.5 -18 q-129 0 -224.5 47.5t-158 126.5t-93.5 179.5t-31 206.5zM272 530q0 -74 18 -150t57.5 -137.5t101.5 -100.5t149 -39q84 0 142.5 37.5t97 96.5t57.5 133t21 147q1 75 -15.5 153.5t-54.5 142t-99 104.5t-149 41q-87 0 -149 -39t-101.5 -101t-57.5 -137.5t-18 -150.5zM1092 620 h586q-6 73 -26 136t-57 108.5t-90.5 71t-124.5 25.5q-67 0 -118.5 -28t-88 -75t-56.5 -109t-25 -129z" />
<glyph unicode="&#x178;" horiz-adv-x="1367" d="M80 1438q0 18 9 34t24.5 28t34.5 19t38 7q24 0 45.5 -11.5t34.5 -35.5l432 -681h2l432 682q14 24 34.5 35t42.5 11q16 0 32 -5.5t28.5 -15t20 -23t7.5 -29.5q-1 -10 -4 -20t-9 -21l-503 -763v-558q0 -23 -8 -40t-22 -28t-31 -17t-35 -6q-37 0 -66 23t-29 68v553l-497 754 q-6 10 -9 20t-4 20zM371 1864q0 19 7 37t21 32t34.5 22.5t47.5 8.5q26 0 47 -8.5t35 -22.5t21.5 -32t7.5 -37t-7.5 -37t-21.5 -32.5t-35 -23t-47 -8.5q-27 0 -47.5 8.5t-34.5 23t-21 32.5t-7 37zM774 1864q0 19 7.5 37t21.5 32t34.5 22.5t47.5 8.5t47.5 -8.5t34 -22.5 t21 -32t7.5 -37t-7.5 -37t-21 -32.5t-34 -23t-47.5 -8.5t-47.5 8.5t-34.5 23t-21.5 32.5t-7.5 37z" />
<glyph unicode="&#x2c6;" horiz-adv-x="608" d="M-6 1242q0 12 3.5 24.5t13.5 24.5l202 286q38 54 91 54q24 0 47 -13t45 -41l201 -286q9 -12 14 -24t4 -24q0 -24 -17 -40t-42 -16q-16 0 -33 8.5t-33 27.5l-185 249l-186 -249q-16 -20 -34 -28.5t-34 -8.5q-24 0 -40.5 16t-16.5 40z" />
<glyph unicode="&#x2dc;" horiz-adv-x="608" d="M-10 1300q0 10 5 19q22 62 67 100.5t118 38.5q36 0 72 -11t69 -24t63 -24t57 -11q37 0 67 37q31 39 62 39q18 0 29 -11.5t11 -29.5q0 -6 -2 -17q-9 -30 -25 -56t-39 -45.5t-53 -30.5t-66 -11q-32 0 -65 11.5t-65.5 25t-64 25t-59.5 11.5q-23 0 -43 -10t-38 -32 q-13 -16 -28 -23.5t-30 -7.5q-17 0 -29.5 9.5t-12.5 27.5z" />
<glyph unicode="&#x2000;" horiz-adv-x="1050" />
<glyph unicode="&#x2001;" horiz-adv-x="2101" />
<glyph unicode="&#x2002;" horiz-adv-x="1050" />
<glyph unicode="&#x2003;" horiz-adv-x="2101" />
<glyph unicode="&#x2004;" horiz-adv-x="700" />
<glyph unicode="&#x2005;" horiz-adv-x="525" />
<glyph unicode="&#x2006;" horiz-adv-x="350" />
<glyph unicode="&#x2007;" horiz-adv-x="350" />
<glyph unicode="&#x2008;" horiz-adv-x="262" />
<glyph unicode="&#x2009;" horiz-adv-x="420" />
<glyph unicode="&#x200a;" horiz-adv-x="116" />
<glyph unicode="&#x2010;" horiz-adv-x="637" d="M32 563q0 33 22.5 55t56.5 22h417q33 0 55.5 -22t22.5 -55q0 -31 -22.5 -52.5t-55.5 -21.5h-417q-33 0 -56 21.5t-23 52.5z" />
<glyph unicode="&#x2011;" horiz-adv-x="637" d="M32 563q0 33 22.5 55t56.5 22h417q33 0 55.5 -22t22.5 -55q0 -31 -22.5 -52.5t-55.5 -21.5h-417q-33 0 -56 21.5t-23 52.5z" />
<glyph unicode="&#x2012;" horiz-adv-x="637" d="M32 563q0 33 22.5 55t56.5 22h417q33 0 55.5 -22t22.5 -55q0 -31 -22.5 -52.5t-55.5 -21.5h-417q-33 0 -56 21.5t-23 52.5z" />
<glyph unicode="&#x2013;" horiz-adv-x="1095" d="M2 565q0 28 18.5 51.5t55.5 23.5h943q37 0 55 -24t18 -52t-18 -51.5t-55 -23.5h-943q-37 0 -55.5 23.5t-18.5 52.5z" />
<glyph unicode="&#x2014;" horiz-adv-x="2191" d="M2 565q0 28 18.5 51.5t55.5 23.5h2039q38 0 56 -24t18 -52t-18 -51.5t-56 -23.5h-2039q-37 0 -55.5 23.5t-18.5 52.5z" />
<glyph unicode="&#x2018;" horiz-adv-x="624" d="M150 1071l162 455h148l-100 -455h-210z" />
<glyph unicode="&#x2019;" horiz-adv-x="624" d="M166 1071l99 455h211l-164 -455h-146z" />
<glyph unicode="&#x201a;" horiz-adv-x="624" d="M166 -250l99 455h211l-164 -455h-146z" />
<glyph unicode="&#x201c;" horiz-adv-x="1226" d="M236 1071l162 455h149l-101 -455h-210zM660 1071l163 455h146l-99 -455h-210z" />
<glyph unicode="&#x201d;" horiz-adv-x="1226" d="M256 1071l99 455h211l-163 -455h-147zM679 1071l100 455h211l-163 -455h-148z" />
<glyph unicode="&#x201e;" horiz-adv-x="1226" d="M257 -250l99 455h211l-163 -455h-147zM679 -250l100 455h211l-162 -455h-149z" />
<glyph unicode="&#x2022;" horiz-adv-x="1095" d="M153 762q0 79 31 148.5t84.5 121t125 81.5t152.5 30q82 0 154.5 -30t126.5 -81.5t85 -121t31 -148.5q0 -77 -31 -146t-85 -121t-126.5 -82.5t-154.5 -30.5q-81 0 -152.5 30.5t-125 82.5t-84.5 121t-31 146z" />
<glyph unicode="&#x2026;" horiz-adv-x="1875" d="M197 104q0 19 7.5 37.5t22.5 33t36.5 24t48.5 9.5t48.5 -9.5t36.5 -24t22.5 -33t7.5 -37.5q0 -21 -7.5 -39.5t-22.5 -33t-36.5 -23.5t-48.5 -9t-48.5 9t-36.5 23.5t-22.5 33t-7.5 39.5zM822 104q0 19 7.5 37.5t22.5 33t36.5 24t48.5 9.5q28 0 49.5 -9.5t36 -24t22 -33 t7.5 -37.5q0 -21 -7.5 -39.5t-22 -33t-36 -23.5t-49.5 -9q-27 0 -48.5 9t-36.5 23.5t-22.5 33t-7.5 39.5zM1448 104q0 19 7.5 37.5t22 33t35.5 24t49 9.5t49.5 -9.5t36 -24t22 -33t7.5 -37.5q0 -21 -7.5 -39.5t-22 -33t-36 -23.5t-49.5 -9t-49 9t-35.5 23.5t-22 33 t-7.5 39.5z" />
<glyph unicode="&#x202f;" horiz-adv-x="420" />
<glyph unicode="&#x2039;" horiz-adv-x="624" d="M117 582l226 408q15 26 34.5 38t38.5 12q25 0 42.5 -16.5t17.5 -41.5q0 -5 -1 -12t-4 -13l-176 -375l176 -375q5 -12 5 -27q0 -25 -17.5 -41t-42.5 -16q-19 0 -38.5 11.5t-34.5 38.5z" />
<glyph unicode="&#x203a;" horiz-adv-x="624" d="M149 181q0 11 6 26l177 375l-177 375q-6 12 -6 25q0 25 18 41.5t43 16.5q18 0 38.5 -12t35.5 -38l226 -408l-226 -409q-15 -27 -35.5 -38.5t-38.5 -11.5q-25 0 -43 16.5t-18 41.5z" />
<glyph unicode="&#x205f;" horiz-adv-x="525" />
<glyph unicode="&#x20ac;" horiz-adv-x="1481" d="M3 556q0 25 16 45t49 20h75q-4 34 -5.5 68t-1.5 70q0 62 6 128h-71q-32 0 -49 20.5t-17 44.5q0 25 16 44.5t50 19.5h93q26 117 81 215.5t137 170t193.5 112t250.5 40.5q91 0 176.5 -14t160.5 -42q23 -12 33 -30.5t10 -40.5q0 -30 -19 -54.5t-50 -24.5q-13 0 -27 7 q-61 21 -129.5 31t-143.5 10q-103 0 -181 -30t-135 -81.5t-94.5 -120.5t-57.5 -148h664q33 0 49 -19.5t16 -44.5q0 -24 -16.5 -44.5t-48.5 -20.5h-688q-5 -30 -6.5 -59t-1.5 -59q0 -71 10 -148h683q34 0 50 -20t16 -45q0 -24 -16.5 -44.5t-49.5 -20.5h-657 q23 -76 60.5 -141.5t93.5 -115.5t133 -78.5t177 -28.5q70 0 146 11.5t144 33.5q5 2 11 3.5t11 1.5q31 0 52 -26t21 -57q0 -20 -10 -37.5t-35 -28.5q-81 -28 -169.5 -43t-183.5 -15q-137 0 -246.5 38.5t-191.5 107.5t-136.5 165t-82.5 210h-99q-32 0 -48.5 20.5t-16.5 44.5z " />
<glyph unicode="&#x2122;" horiz-adv-x="2072" d="M66 1418q0 19 12.5 35t38.5 16h541q25 0 37 -16t12 -36q0 -19 -12 -35t-37 -16h-201v-601q0 -33 -22 -49t-48 -16q-25 0 -46.5 16t-21.5 49v601h-202q-25 0 -38 16t-13 36zM871 764v586q0 62 31 90.5t73 28.5q29 0 59.5 -19t51.5 -64l243 -488l242 488q21 45 50.5 63.5 t59.5 18.5q42 0 72.5 -28t30.5 -90v-586q0 -32 -21.5 -48.5t-47.5 -16.5q-25 0 -46 16t-21 49v509l-259 -528q-10 -20 -26.5 -30.5t-35.5 -10.5q-18 0 -35 9.5t-25 31.5l-260 528v-509q0 -32 -21.5 -48.5t-47.5 -16.5q-25 0 -46 16.5t-21 48.5z" />
<glyph unicode="&#xe000;" horiz-adv-x="1059" d="M0 0v1059h1059v-1059h-1059z" />
<glyph unicode="&#xfb01;" horiz-adv-x="1248" d="M37 995q0 25 17.5 45t51.5 20h149v119q0 104 18.5 175t53.5 114.5t84.5 62.5t110.5 19q41 0 83.5 -6t86.5 -18q25 -7 36 -24.5t11 -37.5q0 -26 -15.5 -47.5t-42.5 -21.5q-34 0 -63.5 7t-63.5 7q-45 0 -70.5 -14.5t-38.5 -49.5t-16 -96t-3 -154v-35h565q16 0 32 -4.5 t29 -15.5t21 -27t8 -38v-888q0 -43 -28 -65t-60 -22t-57.5 21t-25.5 66v841h-484v-842q0 -42 -27 -63.5t-60 -21.5q-16 0 -31 5.5t-26.5 15.5t-19 26t-7.5 38v842h-149q-34 0 -51.5 21t-17.5 46zM878 1430q0 39 31.5 68.5t85.5 29.5q55 0 85.5 -29.5t30.5 -68.5 q0 -40 -30.5 -69.5t-85.5 -29.5q-54 0 -85.5 29.5t-31.5 69.5z" />
<glyph unicode="&#xfb02;" horiz-adv-x="1248" d="M37 995q0 25 17.5 45t51.5 20h149v119q0 103 19.5 173.5t55 114t83.5 62.5t106 19q84 0 142.5 -14t96 -31.5t55 -34t21.5 -20.5q3 38 28.5 57.5t56.5 19.5q32 0 58.5 -21t26.5 -65v-1352q0 -43 -28 -65t-60 -22t-58 21t-26 66v1337h-270q-44 0 -71 -16.5t-41.5 -54.5 t-19 -100.5t-4.5 -154.5v-38h173q34 0 51.5 -20t17.5 -45t-17.5 -46t-51.5 -21h-173v-842q0 -42 -27 -63.5t-60 -21.5q-16 0 -31 5.5t-26.5 15.5t-19 26t-7.5 38v842h-149q-34 0 -51.5 21t-17.5 46z" />
</font>
</defs>
</svg>
